<?xml version="1.0" standalone="no"?>
<!DOCTYPE svg PUBLIC "-//W3C//DTD SVG 1.1//EN" "http://www.w3.org/Graphics/SVG/1.1/DTD/svg11.dtd" >
<svg xmlns="http://www.w3.org/2000/svg" xmlns:xlink="http://www.w3.org/1999/xlink" version="1.1">
<metadata>
Created by FontForge 20190801 at Thu Mar 14 20:09:22 2019
 By Unknown
Copyright (c) 2019, zuzulgo
</metadata>
<defs>
<font id="BagindaScript" horiz-adv-x="691" >
  <font-face 
    font-family="Baginda Script"
    font-weight="400"
    font-stretch="normal"
    units-per-em="1000"
    panose-1="3 0 5 3 0 0 0 0 0 0"
    ascent="714"
    descent="-286"
    x-height="147"
    cap-height="590"
    bbox="-156.001 -291.999 827 704"
    underline-thickness="71"
    underline-position="-212"
    stemh="28"
    stemv="28"
    unicode-range="U+0020-E102"
  />
<missing-glyph horiz-adv-x="500" 
d="M50 0v476h400v-476h-400zM100 50h300v376h-300v-376z" />
    <glyph glyph-name="lig.ff" unicode="ff" horiz-adv-x="388" 
d="M120 487c-5 0 -11.002 -3.99609 -13.002 -8.99609c0 0 -30 -71 -60 -166c-27 -84 -55 -186 -62 -274c-9 -1 -15 -1 -15 -1c-8 0 -14 -6 -14 -14c0 -4 4 -10 7 -12c7 -5 14 -10 20 -15c-0.414062 -29.8232 -0.65625 -56.0439 -0.65625 -79.0166
c0 -32.4883 0.485352 -58.4814 1.65723 -78.9844c2 -36 5 -56 13 -69c2 -3 4 -7 8 -9s10 -3 14 -2c9 1 13 6 17 10c8 8 14 18 18 23c15.5664 18.2354 27.1768 46.9541 27.1768 80.4385c0 41.8018 -18.0947 91.0312 -69.1768 136.561c0 2 1 4 1 6c13 2 28 4 45 9
c34 9 72 25 103 51l-3 -30c-3 -1 -20 -8 -20 -8c-5 -2 -8 -8 -8 -13c0 -4 3 -10 6 -12c7 -5 15 -10 21 -15c-0.414062 -29.8232 -0.65625 -56.0439 -0.65625 -79.0166c0 -32.4883 0.485352 -58.4814 1.65723 -78.9844c2 -36 4 -56 12 -69c2 -3 5 -7 9 -9s9 -3 13 -2
c9 1 13 6 17 10c8 8 14 18 18 23c15.5664 18.2354 27.1768 46.9541 27.1768 80.4385c0 41.8018 -18.0947 91.0312 -69.1768 136.561c0 5 1 11 1 16c19 8 33 14 69 28c56 22 119 46 141 52c6 2 11 8 11 14c0 8 -6 14 -14 14h-4c-27 -7 -88 -31 -144 -53
c-30 -12 -37 -15 -57 -23c1 17 3 34 5 52l1 2c22 30 66 104 96 175c15 35 26 69 29 97c0.37793 5.29102 0.755859 10.4395 0.755859 15.3916c0 8.14941 -1.02344 15.7656 -4.75586 22.6084c-6 11 -18 18 -32 19h-1h-1c-12 -1 -20 -7 -27 -16s-14 -20 -20 -33
c-13 -26 -25 -63 -36 -104c-13 -50 -24 -107 -32 -166c-28 -36 -75 -57 -116 -69c-13 -4 -24 -6 -35 -8c8 83 33 181 59 261c30 93 60 163 60 163c1 2 1 4 1 6c0 8 -7 14 -15 14zM282.998 411.004c4 0 5 -1 6 -4c2 -3 3 -11 2 -22c-2 -22 -13 -54 -27 -88
c-17 -41 -40 -84 -60 -118c6 35 14 69 22 100c11 40 23 74 34 98c6 12 11 21 16 27c4 5 7 7 7 7zM10.998 -30.9961c31.3711 -34.4072 42.0039 -68.3018 42.0039 -96.7617c0 -27.7871 -10.1357 -50.3936 -21.0039 -63.2383c-5 -6 -9 -11 -13 -16c-2 9 -5 23 -6 46
c-1.46387 21.2295 -2.3916 49.9619 -2.3916 86.5889c0 13.4062 0.124023 27.8701 0.391602 43.4111zM184.997 -30.9961c31 -34 41.501 -67.501 41.501 -95.751s-10.5 -51.25 -21.5 -64.25c-5 -6 -9 -11 -13 -16c-2 9 -5 23 -6 46
c-1.17188 16.9883 -1.65723 38.7803 -1.65723 65.5771c0 18.9482 0.242188 40.3994 0.65625 64.4238z" />
    <glyph glyph-name="lig.ll" unicode="ll" horiz-adv-x="414" 
d="M120.087 487c-5 0 -9.99707 -4.00098 -11.9971 -8.00098c0 0 -30 -60 -59 -140c-25.9434 -71.5684 -51.0869 -159.943 -51.0869 -238.634c0 -9.27051 0.348633 -18.4072 1.08594 -27.3662c3 -37 12 -61 31 -72c9 -6 20 -7 30 -5s19 6 29 12c29 17 60 48 85 76v-11
c3 -38 18 -63 42 -73c8.5459 -3.56055 17.3457 -5.09277 26.3535 -5.09277c16.2891 0 33.2598 5.00977 50.6455 12.0928c53 22 109 68 139 101c2 2 4 7 4 10c0 8 -7 14 -15 14c-4 0 -8 -2 -10 -5c-27 -30 -82 -74 -128 -93
c-14.9854 -6.51562 -29.1211 -9.63477 -40.4727 -9.63477c-6.07129 0 -11.3457 0.892578 -15.5273 2.63477c-12 5 -21 16 -24 48c-1 14 -1 29 -1 44c6 11 46 88 81 171c19 45 36 89 43 124c2.42188 10.9004 3.74414 20.7002 3.74414 29.8438
c0 5.95605 -0.560547 11.6338 -1.74414 17.1562c-2 7 -4 13 -10 18s-14 8 -22 8c-12 0 -21 -7 -29 -15s-15 -19 -22 -32c-14 -26 -28 -62 -39 -102c-18 -64 -32 -141 -33 -212c-28 -31 -68 -75 -98 -93c-8 -5 -15 -8 -20 -9s-8 0 -11 2c-6 3 -14 16 -17 49
c-0.572266 7.24414 -0.844727 14.6973 -0.844727 22.3223c0 72.3691 24.5127 160.208 49.8438 231.679c28 79 58 137 58 137c1 2 1 5 1 7c0 8 -6 14 -14 14h-1zM296.09 457.999l3 0.000976562s0 -1 1 -4c0.366211 -2.19629 0.598633 -5.19629 0.598633 -8.90234
c0 -6.41895 -0.696289 -14.9551 -2.59863 -25.0986c-6 -31 -22 -75 -41 -119c-17 -40 -35 -78 -51 -110c5 48 15 97 27 139c11 39 24 73 37 96c6 12 13 21 18 26s8 6 8 6z" />
    <glyph glyph-name="lig.ss" unicode="ss" horiz-adv-x="439" 
d="M52.8877 185c-1 0 -3.99609 -0.999023 -4.99609 -0.999023c0 0 -14 -5 -27 -15c-11.1514 -8.57812 -23.0381 -23.7783 -23.0381 -43.707c0 -3.30469 0.327148 -6.73926 1.03809 -10.2949c5 -23 15 -52 23 -78c-14 -12 -25 -23 -33 -34
c-5.5791 -8.76758 -9.8877 -18.1709 -9.8877 -28.209c0 -2.55566 0.279297 -5.15234 0.887695 -7.79102c3 -13 15 -22 29 -27c11 -4 21 -6 30 -4s17 9 21 17c3.38086 6.7627 4.61816 13.7041 4.61816 20.8994c0 9.8291 -2.30957 20.1318 -4.61914 31.1016c-2 7 -3 15 -5 22
c8 6 16 12 25 18c40 28 90 56 132 79c0 -3 0 -6 1 -9c5 -23 14 -46 22 -66c-6 -5 -11 -11 -16 -16c-22 -24 -36 -46 -38 -67c0 -5 -1 -11 2 -16s8 -10 13 -12c4.44043 -2.01855 8.88086 -2.89648 13.5186 -2.89648c6.85059 0 14.1318 1.91504 22.4795 4.89648
c21 7 36 19 42 35c2.70801 7.22266 3.78613 14.6494 3.78613 22.0957c0 9.04883 -1.59277 18.127 -3.78711 26.9043c-1 5 -3 12 -5 17c42 33 103 63 172 63c8 0 14 6 14 14s-6 14 -14 14c-73 0 -137 -29 -183 -63c-7 18 -14 36 -17 52c-3 12 2 19 11 26c7 4 15 8 21 11
c4 2 8 7 8 12c0 8 -6 15 -14 15c-1 0 -4 -1 -5 -1c0 0 -12 -4 -24 -13c-46 -25 -117 -63 -174 -102c-6 -4 -12 -9 -18 -13c-8 24 -15 48 -19 65c-3 12 3 19 12 26s18 10 18 10c6 2 10 7 10 13c0 8 -6 15 -14 15zM245.892 20.001c0 -1 1 -2 1 -3
c2.14355 -7.50293 3.13867 -13.8564 3.13867 -19.2158c0 -4.64062 -0.746094 -8.53516 -2.13867 -11.7842c-3 -7 -9 -14 -25 -19c-8 -3 -12 -3 -14 -3c0 7 11 29 31 50zM29.8916 6.00098c1 -2 2 -4.99902 2 -6.99902c2.21094 -9.39746 2.89453 -17.8779 2.89453 -24.0908
c0 -5.02637 -0.447266 -8.56836 -0.894531 -9.91016c-1 -1 1 -1 -1 -1s-7 0 -15 3c-10 3 -11 6 -11 7s0 6 5 13c4 6 10 12 18 19z" />
    <glyph glyph-name="lig.tt" unicode="tt" horiz-adv-x="299" 
d="M285 487c-6 0 -11.001 -4.00195 -13.001 -10.002c0 0 -20 -62 -43 -147h-153c28 78 57 136 57 136c1 2 2 5 2 7c0 8 -6 14 -14 14h-1c-5 0 -10 -4 -12 -8c0 0 -31 -60 -60 -140l-3 -9h-80h-1c-8 0 -14 -6 -14 -14s6 -15 14 -15h1h71
c-20.9668 -63.7734 -38.1172 -135.179 -38.1172 -200.215c0 -9.40918 0.359375 -18.6846 1.11816 -27.7842c3 -37 12 -61 31 -72c6.7334 -3.89844 13.8438 -5.53613 21.1084 -5.53613c13.2334 0 26.9795 5.43457 39.8916 12.5361c27 15 53 41 77 66
c-12.4062 -62.8604 -20.0244 -122.3 -20.0244 -169.266c0 -9.81738 0.333008 -19.0898 1.02441 -27.7344c1 -7 7 -14 14 -14c8 0 15 7 15 15v1c-0.536133 6.79199 -0.792969 14.167 -0.792969 22.0576c0 80.4062 26.6523 214.382 55.793 330.943c6 24 12 47 18 69h102
c8 0 15 7 15 15s-7 14 -15 14h-94c22 81 40 138 40 138c0 1 1 4 1 5c0 8 -7 14 -15 14zM65.999 300.998l156 0.000976562c-5 -20 -11 -41 -16 -62c-9 -36 -18 -73 -26 -110l-2 -2c-28 -31 -69 -76 -101 -94c-10.8066 -6.0791 -19.333 -8.96484 -25.5781 -8.96484
c-3.00098 0 -5.47461 0.666016 -7.42188 1.96387c-6 4 -14 16 -17 49c-0.703125 7.9707 -1.03516 16.1748 -1.03516 24.5664c0 63.1953 18.8486 136.99 40.0352 201.434z" />
    <glyph glyph-name=".notdef" horiz-adv-x="500" 
d="M50 0v476h400v-476h-400zM100 50h300v376h-300v-376z" />
    <glyph glyph-name="space" unicode=" " horiz-adv-x="250" 
 />
    <glyph glyph-name="exclam" unicode="!" horiz-adv-x="183" 
d="M119 580c-8 0 -14 -6 -14 -14c0 0 -3 -261 -42 -500v-3c0 -8 6 -14 14 -14c7 0 13 5 14 12c39 242 42 504 42 504v1c0 8 -6 14 -14 14zM70 12c-6 0 -11 -5 -13 -11l-6 -21c0 -1 -1 -3 -1 -4c0 -8 6 -15 14 -15c6 0 12 5 14 11l6 21c0 1 1 3 1 4c0 8 -6 15 -14 15h-1z" />
    <glyph glyph-name="quotedbl" unicode="&#x22;" horiz-adv-x="216" 
d="M92 516h-1c-6 0 -12 -6 -13 -12c-7 -29 -12 -58 -25 -75c-2 -2 -3 -5 -3 -8c0 -8 6 -15 14 -15c4 0 10 3 12 6c19 25 23 58 29 86c0 1 1 2 1 3c0 8 -6 15 -14 15zM152 516c-6 0 -13 -6 -14 -12c-7 -29 -12 -58 -25 -75c-2 -2 -3 -5 -3 -8c0 -8 7 -15 15 -15c4 0 9 3 11 6
c19 25 24 58 30 86v3c0 8 -6 15 -14 15z" />
    <glyph glyph-name="numbersign" unicode="#" horiz-adv-x="532" 
d="M359 362c-6 0 -13 -5.99902 -14 -11.999c0 0 -12 -55 -23 -132c-40 -5 -86 -14 -132 -26c8 66 17 110 17 110v3c0 8 -6 14 -14 14h-1c-6 0 -13 -6 -14 -12c0 0 -9 -50 -18 -123c-28 -8 -55 -19 -81 -31c-5 -2 -9 -8 -9 -13c0 -8 6 -14 14 -14c2 0 4 0 6 1
c21 10 44 18 67 25c-4 -37 -8 -78 -11 -120c-29 -8 -59 -18 -88 -30c-5 -2 -8 -9 -8 -14c0 -8 6 -14 14 -14c2 0 4 0 6 1c24 10 49 20 74 27c-1.46387 -30.7461 -2.3916 -61.4922 -2.3916 -91.8457c0 -11.1104 0.124023 -22.168 0.391602 -33.1543c0 -8 6 -14 14 -14
s14 7 14 15c-0.25 10.75 -0.375 21.625 -0.375 32.5781c0 32.8594 1.125 66.4219 3.375 99.4219c48 12 94 20 134 25c-0.162109 -7.14062 -0.245117 -14.2812 -0.245117 -21.4043c0 -36.7715 2.21875 -73.0879 7.24512 -106.597c1 -7 7 -12 14 -12c8 0 14 6 14 14v2
c-4.70898 30.6055 -6.33789 64.29 -6.33789 98.6377c0 9.4209 0.123047 18.8916 0.337891 28.3623c32.5 3 59.75 3.75 78.875 3.75s30.125 -0.75 30.125 -0.75h1c8 0 14 7 14 15s-5 14 -13 14h-35c-19 0 -45 -1 -75 -3c2 44 6 86 11 125c70 8 120 8 120 8c8 0 14 7 14 15
s-6 14 -14 14c0 0 -48 0 -116 -8c10 72 21 123 21 123v4c0 8 -6 14 -14 14zM319 188.001c-5 -39 -9 -81 -11 -124c-40 -4 -85 -12 -133 -24c3 43 7 84 11 121c46 13 92 21 133 27z" />
    <glyph glyph-name="dollar" unicode="$" horiz-adv-x="392" 
d="M227 487h-0.99707c-8 0 -14 -6 -14 -14c0 0 -1 -35 -5 -90c-22 -10 -45 -23 -66 -39c-49 -37 -91 -87 -91 -138c0 -25 13 -50 39 -68c22 -15 53 -25 95 -31c-4 -42 -9 -86 -14 -127c-4 -1 -7 -1 -11 -2c-4.95996 -0.708984 -9.79395 -1.04102 -14.2803 -1.04102
c-8.17773 0 -15.2002 1.10352 -19.7207 3.04102c-7 3 -11 7 -12 17c-1 7 -7 12 -14 12c-8 0 -15 -6 -15 -14c0 -1 1 -1 1 -2c3 -18 13 -33 28 -39c9.61621 -3.84668 20.0547 -5.63867 31.0518 -5.63867c6.15625 0 12.4873 0.561523 18.9473 1.63867h3c-3 -24 -6 -47 -10 -70
v-2c0 -8 6 -15 14 -15c7 0 13 6 14 13c4 26 8 54 12 82c26 8 51 22 73 37c16 11 30 23 40 36c8.24805 10.7227 13.7744 23.4863 13.7744 36.6074c0 2.78711 -0.249023 5.58984 -0.774414 8.39258c-3 16 -15 30 -33 39c-17 8 -41 14 -73 17c8 86 14 168 18 230
c15.5107 5.16992 29.3848 8.1582 40.8164 8.1582c4.0459 0 7.78516 -0.374023 11.1836 -1.1582c14 -3 22 -10 26 -28c1.0293 -4.63184 1.59473 -10.0586 1.59473 -16.3145c0 -18.0527 -4.71289 -43.0078 -16.5957 -75.6855c-1 -1 -1 -4 -1 -5c0 -8 6 -14 14 -14
c6 0 12 4 14 9c12.4199 34.3369 18.4346 61.7354 18.4346 84.5352c0 8.4082 -0.818359 16.1904 -2.43457 23.4648c-6 27 -24 45 -47 50c-6 1 -12 2 -18 2c-12 0 -26 -1 -39 -5c3 48 5 78 5 78v1c0 8 -6 14 -14 14zM205.003 350c-4 -60 -10 -136 -18 -215
c-39 6 -65 16 -82 27c-20 13 -26 27 -26 44c0 33 34 81 79 115c15 11 31 21 47 29zM213.003 103c30 -3 50 -8 63 -14s17 -13 18 -18s-1 -13 -8 -23s-19 -20 -33 -30c-16 -11 -34 -21 -53 -28c5 37 9 75 13 113z" />
    <glyph glyph-name="percent" unicode="%" horiz-adv-x="347" 
d="M283 487c-5 0 -11 -3 -13 -7c0 0 -143 -244 -219 -478c0 -1 -1 -4 -1 -5c0 -8 6 -14 14 -14c6 0 12 4 14 10c75 229 217 472 217 472c1 2 2 6 2 8c0 8 -6 14 -14 14zM160 487l-1 0.00195312h-1s-18 -2 -35 -10c-8 -4 -17 -10 -23 -20
c-3.24805 -5.41406 -5.03125 -11.4141 -5.03125 -17.8418c0 -5.44531 1.2793 -11.1973 4.03125 -17.1592c6 -14 20 -23 33 -25c3.25 -0.5 6.5625 -0.75 9.89062 -0.75c9.98438 0 20.1094 2.25 29.1094 6.75c12.4199 6.20996 23.0752 18.8486 23.0752 36.4043
c0 15.1025 -8.92969 29.3486 -25.0752 43.5947c-2 2 -6 4 -9 4zM155 457.002c9 -9 10 -16 10 -19c0 -4 -1 -6 -7 -9s-14 -5 -21 -4s-10 4 -12 8c-3 6 -1 7 0 9s5 6 11 9c7 3 14 5 19 6zM211 71.002l-1.99902 0.000976562s-18 -2 -35 -10c-8 -4 -16 -10 -22 -20
c-3.4873 -5.81152 -5.62305 -12.2988 -5.62305 -19.2646c0 -5.02051 1.10938 -10.29 3.62207 -15.7354c6 -14 20 -23 33 -25c3.25 -0.5 6.5625 -0.75 9.89062 -0.75c9.98438 0 20.1094 2.25 29.1094 6.75c12.4199 6.20996 23.0752 18.8486 23.0752 36.4043
c0 15.1025 -8.92969 29.3486 -25.0752 43.5947c-2 2 -6 4 -9 4zM206.001 41.0029c9 -9 10 -16 10 -19c0 -4 -1 -6 -7 -9s-14 -5 -21 -4s-10 4 -12 8c-3 6 -1 8 0 10s5 5 11 8c7 3 14 5 19 6z" />
    <glyph glyph-name="ampersand" unicode="&#x26;" horiz-adv-x="440" 
d="M263 496h-5c-10 -1 -21 -4 -34 -10c-57 -24 -88 -73 -96 -130c-1.62891 -11.1318 -2.37305 -22.5586 -2.37305 -34.2197c0 -31.29 5.36035 -64.2705 13.374 -97.7812c-27 -49 -53 -99 -70 -146c-12 -33 -19 -64 -19 -92s9 -54 29 -72
c7.25879 -6.65332 16.3467 -9.64844 25.4932 -9.64844c5.97461 0 11.9746 1.27832 17.5059 3.64941c14 6 27 17 40 30c21 21 44 50 65 82c43 -69 94 -126 142 -154c2 -1 5 -2 7 -2c8 0 14 6 14 14c0 5 -3 10 -7 12c-43 25 -94 85 -138 157c52 81 96 168 96 168c1 2 1 4 1 6
c0 8 -6 15 -14 15c-5 0 -11 -5 -13 -9c0 0 -39 -76 -86 -152c-18 33 -35 69 -47 104c-5 14 -9 27 -13 41c9 16 19 32 28 48c38 66 75 126 90 167c4 10 6 19 7 28s-1 19 -9 26c-6 5 -13 7 -20 7h-2zM264 468h1v-3c0 -4 -2 -11 -5 -20c-13 -35 -49 -96 -88 -162l-12 -21
c-3.59961 19.2002 -5.39941 38.04 -5.39941 55.8721c0 11.8877 0.799805 23.3281 2.39941 34.1279c7 50 30 87 78 107c12 5 21 8 26 9h3zM150 185c2 -5 3 -11 5 -16c15 -42 34 -83 56 -122c-23 -35 -48 -68 -69 -89c-12 -12 -23 -20 -31 -23s-9 -2 -13 1
c-13 12 -19 27 -19 50s6 51 17 82c13 36 32 77 54 117z" />
    <glyph glyph-name="quotesingle" unicode="'" horiz-adv-x="156" 
d="M92 516c-6 0 -13 -6 -14 -12c-7 -29 -12 -58 -25 -75c-2 -2 -3 -5 -3 -8c0 -8 6 -15 14 -15c4 0 10 3 12 6c19 25 24 58 30 86v3c0 8 -6 15 -14 15z" />
    <glyph glyph-name="parenleft" unicode="(" horiz-adv-x="372" 
d="M308.696 577c-2 0 -4 0 -6 -1c-99 -49 -193 -195 -233 -357c-12.4736 -50.5186 -19.6963 -102.787 -19.6963 -154.138c0 -113.318 35.1709 -222.165 126.696 -297.862c2 -2 6 -3 9 -3c8 0 15 6 15 14c0 4 -3 9 -6 11c-83.4375 69.0752 -116.359 169.021 -116.359 274.887
c0 48.9277 7.03223 99.1201 19.3594 148.113c39 155 133 297 217 338c4 2 8 8 8 13c0 8 -6 14 -14 14z" />
    <glyph glyph-name="parenright" unicode=")" horiz-adv-x="336" 
d="M186 577c-8 0 -12.999 -5.99902 -12.999 -13.999c0 -3 1 -8 3 -10c54.5107 -60.4854 81.1416 -169.481 81.1416 -287.017c0 -39.8652 -3.06348 -80.7129 -9.1416 -120.983c-24 -159 -95 -308 -190 -354c-5 -2 -8 -8 -8 -13c0 -8 6 -14 14 -14c2 0 4 0 6 1
c111 54 181 211 206 376c6.67676 44.0664 10.2148 88.7031 10.2148 132.234c0 119.465 -26.6494 230.603 -88.2158 298.765c-2 3 -7 5 -11 5h-1z" />
    <glyph glyph-name="asterisk" unicode="*" horiz-adv-x="211" 
d="M105 527c-5 0 -10 -5 -10 -10v-22c-6 5 -11 11 -17 16c-2 2 -5 2 -7 2c-5 0 -10 -4 -10 -9c0 -2 1 -5 3 -7c5 -5 10 -10 15 -14l-19 1h-1c-5 0 -9 -5 -9 -10s4 -10 9 -10h23l-16 -16c-2 -2 -3 -5 -3 -7c0 -5 5 -10 10 -10c2 0 5 1 7 3l15 16c-1 -7 -1 -15 -3 -22v-2
c0 -5 5 -10 10 -10c4 0 8 3 9 7c2 9 3 18 4 27c5 -5 8 -10 12 -16c2 -2 6 -5 9 -5c5 0 9 5 9 10c0 2 0 4 -1 5c-5 7 -10 13 -15 19h22c5 0 10 5 10 10s-5 9 -10 9l-23 1l16 16c2 2 3 5 3 7c0 5 -4 9 -9 9h-1c-2 0 -4 -1 -6 -3l-16 -16c0 7 -1 14 -1 21c0 5 -4 10 -9 10z" />
    <glyph glyph-name="plus" unicode="+" horiz-adv-x="344" 
d="M171 278c-6 0 -12 -5 -13 -11c-4 -22 -7 -53 -8 -86l-85 3h-1c-7 0 -14 -6 -14 -14s6 -14 14 -14l86 -4c0 -32 1 -62 1 -82c0 -8 6 -14 14 -14s14 6 14 14v1v80l100 -4h1c8 0 14 7 14 15s-6 14 -14 14l-101 4c1 33 3 63 7 81v3c0 8 -6 14 -14 14h-1z" />
    <glyph glyph-name="comma" unicode="," horiz-adv-x="179" 
d="M114 12c-6 0 -13 -6 -14 -12c-5 -24 -15 -39 -24 -47s-16 -10 -16 -10c-5 -2 -10 -8 -10 -14c0 -8 7 -14 15 -14c1 0 4 1 5 1c0 0 12 4 25 16s27 32 33 62c0 1 1 2 1 3c0 8 -7 15 -15 15z" />
    <glyph glyph-name="hyphen" unicode="-" horiz-adv-x="333" 
d="M64 170c-8 0 -14 -6 -14 -14s6 -14 14 -14h204h1c8 0 14 6 14 14s-6 14 -14 14h-1h-204z" />
    <glyph glyph-name="period" unicode="." horiz-adv-x="135" 
d="M70 12c-6 0 -11 -5 -13 -11l-6 -21c0 -1 -1 -3 -1 -4c0 -8 6 -15 14 -15c6 0 12 5 14 11l6 21c0 1 1 3 1 4c0 8 -6 15 -14 15h-1z" />
    <glyph glyph-name="slash" unicode="/" horiz-adv-x="419" 
d="M355 580c-5 0 -11 -4 -13 -8c0 0 -58 -112 -124 -254s-139 -315 -167 -437c0 -1 -1 -2 -1 -3c0 -8 7 -15 15 -15c6 0 13 6 14 12c27 118 99 289 164 431s125 253 125 253c1 2 1 5 1 7c0 8 -6 14 -14 14z" />
    <glyph glyph-name="zero" unicode="0" horiz-adv-x="365" 
d="M243.652 473h-4c-11 0 -23 -3 -36 -6c-1 0 -4 1 -5 1s-2 -1 -3 -1c-16 -3 -30 -10 -44 -20c-28 -14 -59 -34 -95 -61c-3 -2 -6 -8 -6 -12c0 -8 6 -14 14 -14c3 0 7 1 9 3c7 5 13 10 20 15c-5 -8 -10 -18 -15 -27c-32 -61 -56 -136 -69 -210
c-6.18359 -35.2002 -9.65234 -69.4951 -9.65234 -101.271c0 -35.0254 4.21484 -66.9893 13.6523 -93.7295c9 -25 23 -47 44 -59c11.7539 -6.7168 25.3867 -9.9873 40.373 -9.9873c11.79 0 24.418 2.02441 37.627 5.9873c25 6 48 24 70 49s42 59 61 96c37 74 66 164 75 245
c2.29004 18.3213 3.53125 36.2236 3.53125 53.3213c0 20.2305 -1.7373 39.3359 -5.53125 56.6787c-7 32 -21 60 -45 76c-14 9 -31 14 -51 14zM243.652 444c15 0 26.001 -2.99902 35.001 -8.99902c16 -10 27 -30 33 -58c3.30273 -15.4141 4.78711 -32.6465 4.78711 -51.3643
c0 -15.2822 -0.990234 -31.5547 -2.78809 -48.6357c-9 -76 -36 -166 -72 -237c-18 -36 -37 -66 -57 -89s-40 -37 -56 -40h-1c-11.7217 -3.75098 -21.9043 -5.52344 -30.7549 -5.52344c-10.0254 0 -18.3408 2.27441 -25.2451 6.52344c-13 8 -24 22 -31 43
c-7.91797 22.1699 -11.6562 51.585 -11.6562 84.8613c0 29.7637 2.99023 62.6162 8.65625 96.1377c12 71 36 145 66 202c20 39 44 68 66 85c13 6 26 12 37 15c13 4 24 6 34 6h3z" />
    <glyph glyph-name="one" unicode="1" horiz-adv-x="153" 
d="M119 487c-3 0 -8 -2 -10 -4c0 0 -15 -14 -35 -29s-46 -30 -62 -33c-7 -1 -12 -7 -12 -14c0 -8 7 -15 15 -15h2c26 5 53 23 74 39c1 1 3 2 4 3c-10 -40 -26 -107 -44 -198c-22.1924 -110.963 -42.9277 -235.041 -42.9277 -319.995
c0 -14.5742 0.610352 -27.9971 1.92871 -40.0049c1 -7 8 -13 15 -13c8 0 14 7 14 15v1c-1.13672 10.2295 -1.66797 22.0342 -1.66797 35.1289c0 79.0713 19.3613 205.199 41.667 315.871c26 129 54 239 54 239v4c0 8 -6 14 -14 14z" />
    <glyph glyph-name="two" unicode="2" horiz-adv-x="312" 
d="M209.661 487c-62 0 -105.998 -41.002 -134.998 -80.002s-43 -78 -43 -78c-1 -1 -1 -4 -1 -5c0 -8 6 -14 14 -14c6 0 12 4 14 9c0 0 13 36 39 71s63 68 112 68c20 0 28 -5 32 -12c2.11035 -3.69238 3.38574 -9.33301 3.38574 -16.7744
c0 -6.66504 -1.02344 -14.7754 -3.38574 -24.2246c-10 -40 -41 -101 -78 -165s-80 -134 -112 -198c-29.1494 -58.2988 -51.6611 -110.789 -51.6611 -153.691c0 -4.19531 0.214844 -8.29883 0.660156 -12.3076c0 -4 4 -9 8 -11c0 0 6 -2 16 -5s25 -6 46 -8
c14 -1.33301 30.7773 -2.22168 50.666 -2.22168c39.7773 0 92 3.55566 159.333 14.2227c7 1 12 7 12 14c0 8 -6 14 -14 14h-2c-66 -10.667 -116.889 -14.2227 -155.037 -14.2227c-19.0742 0 -34.9629 0.888672 -47.9629 2.22168c-20 2 -33 5 -41 7c-2 1 -2 1 -3 1
c0 33 19 84 48 141c32 62 74 132 111 197s68 125 80 172c3 12 5 23 5 33.25s-2 19.75 -7 28.75c-10 18 -31 27 -57 27z" />
    <glyph glyph-name="three" unicode="3" horiz-adv-x="378" 
d="M213 487c-62 0 -107 -41 -136 -80s-43 -78 -43 -78c-1 -1 -1 -4 -1 -5c0 -8 7 -14 15 -14c6 0 11 4 13 9c0 0 13 36 39 71s64 68 113 68c43 0 73 -14 92 -35c16.4092 -18.1367 24.6133 -43.7314 24.6133 -72.2764c0 -4.50684 -0.204102 -9.08789 -0.613281 -13.7246
c-7 -69 -62 -154 -176 -206c-5 -2 -8 -8 -8 -13c0 -4 2 -10 6 -12c67.583 -40.3477 91.0361 -79.9795 91.0361 -113.222c0 -30.1133 -19.7783 -57.1855 -50.0361 -73.7783c-19.0361 -10.4395 -41.4658 -16.3535 -63.1211 -16.3535
c-13.6104 0 -26.915 2.33594 -38.8789 7.35352c-31 13 -56 43 -61 103c-1 7 -7 13 -14 13c-8 0 -15 -7 -15 -15v-1c5 -68 38 -109 79 -126c16.2754 -6.74805 33.4971 -9.87207 50.7256 -9.87207c26.1709 0 52.3584 7.20898 75.2734 19.873
c37.3633 20.6475 66.0254 56.7637 66.0254 99.793c0 41.9717 -25.5498 82.8818 -83.0254 122.207c107 56 163 142 170 218c0.536133 5.49121 0.802734 10.9463 0.802734 16.3438c0 34.9053 -11.1504 67.4062 -32.8018 91.6562c-25 28 -63 45 -113 45z" />
    <glyph glyph-name="four" unicode="4" horiz-adv-x="341" 
d="M308 487l-0.999023 -0.00195312c-6 0 -13 -5 -14 -11c0 0 -27 -110 -53 -240c-7 -38 -16 -76 -22 -115c-18.167 -1.65137 -37.5459 -2.39355 -56.9697 -2.39355c-15.8594 0 -31.748 0.495117 -47.0303 1.39453c-37 3 -62 6 -79 9l151 338c1 2 1 4 1 6c0 8 -6 14 -14 14
c-5 0 -11 -3 -13 -8l-159 -355c-1 -2 -1 -4 -1 -6c0 -7 5 -13 11 -14c0 0 46 -8 101 -12c20.2383 -1.26465 42.0771 -2.5293 63.998 -2.5293c12.7393 0 25.5059 0.426758 38.002 1.5293c-9.99023 -64.5527 -17.0273 -126.152 -17.0273 -174.814
c0 -14.6602 0.638672 -28.1465 2.02734 -40.1855c1 -7 7 -13 14 -13c8 0 14 7 14 15v1c-1.01758 9.76562 -1.49707 20.8975 -1.49707 33.168c0 48.04 7.34473 113.533 18.4961 182.833c13 2 24 6 35 10c5 2 10 7 10 13c0 8 -7 14 -15 14c-2 0 -4 0 -5 -1
c-6 -2 -13 -4 -21 -6c6 35 13 71 20 105c26 129 53 239 53 239v4c0 8 -5 14 -13 14z" />
    <glyph glyph-name="five" unicode="5" horiz-adv-x="352" 
d="M96 487c-6 0 -12.999 -4.99805 -13.999 -10.998l-61 -265c0 -1 -1 -2 -1 -3c0 -8 6 -15 14 -15c1 0 4 1 5 1c50.9111 17.9688 92.8535 25.5049 127.158 25.5049c45.8789 0 78.0977 -13.4785 99.8398 -33.5049c26.4883 -24.3975 38.8857 -61.4277 38.8857 -100.592
c0 -17.0205 -2.3418 -34.4443 -6.88574 -51.4092c-15 -56 -52 -106 -98 -120c-9.01367 -2.74316 -18.5654 -4.25781 -28.6094 -4.25781c-41.2129 0 -90.7158 25.502 -145.391 96.2578c-2 3 -7 6 -11 6c-8 0 -15 -7 -15 -15c0 -3 1 -7 3 -9
c57.7793 -75.4346 116.203 -106.434 168.035 -106.434c12.7568 0 25.1143 1.87793 36.9648 5.43262c60 18 101 77 117 140c4.96289 19.541 7.71289 39.8516 7.71289 59.918c0 44.626 -13.6016 88.04 -46.7129 119.082c-27.9346 26.0723 -67.8154 41.7402 -120.6 41.7402
c-32.2451 0 -69.3057 -5.84668 -111.399 -18.7402l53 229h199h1c8 0 14 7 14 15s-6 14 -14 14h-1h-210z" />
    <glyph glyph-name="six" unicode="6" horiz-adv-x="381" 
d="M338 487c-46 -1 -94 -38 -141 -91c-50 -56 -99 -132 -136 -208c-8 -16 -14 -32 -21 -48l-21 -9c-5 -2 -9 -8 -9 -13c0 -8 7 -14 15 -14h1c-16 -46 -26 -90 -26 -127c0 -30 7 -56 23 -75c15.2695 -18.1328 39.6475 -28.0684 69.6562 -28.0684
c1.43555 0 2.88379 0.0224609 4.34473 0.0683594c2.26172 -0.138672 4.53027 -0.207031 6.80371 -0.207031c46.9814 0 96.2725 29.0996 139.195 68.207c45 41 83 93 98 141c4.49219 13.4775 7.09277 26.6396 7.09277 39.3096c0 9.8916 -1.58496 19.4834 -5.09277 28.6904
c-8 21 -26 35 -52 42c-11 2.75 -23.5 4.1875 -37.6562 4.1875c-42.4688 0 -99.8438 -12.9375 -176.344 -42.1875c3 7 7 14 10 21c35 73 83 147 131 201c45.8047 51.5303 92.5195 81.2061 122.766 81.2061c1.4502 0 2.8623 -0.0683594 4.23438 -0.206055h1c8 0 15 7 15 15
c0 7 -6 13 -13 14h-10zM258 169c10 0 19.001 -1 26.001 -3c19 -5 28 -13 32 -25c1.59961 -4.7998 2.39941 -10.3994 2.39941 -16.6719c0 -9.4082 -1.7998 -20.3281 -5.39941 -32.3281c-13 -40 -47 -91 -89 -129c-40.4297 -36.5791 -86.4189 -61.1123 -121.912 -61.1123
c-1.37891 0 -2.74219 0.0371094 -4.08887 0.112305h-1c-1.64453 -0.0634766 -3.24902 -0.0947266 -4.81445 -0.0947266c-23.1855 0 -37.8184 6.85352 -47.1855 18.0947c-10 12 -16 31 -16 57c0 38 12 88 33 141c83 34 145 49 185 51h11z" />
    <glyph glyph-name="seven" unicode="7" horiz-adv-x="335" 
d="M99 490h-22c-29 0 -52 -1 -65 -3c-7 -1 -12 -7 -12 -14c0 -8 6 -15 14 -15c1 0 2 1 3 1c8 1 31 2 60 2h96c49 -1 85 -1 106 -2c-10 -25 -46 -114 -89 -229c-50 -132 -102 -279 -112 -350v-2c0 -8 6 -15 14 -15c7 0 13 6 14 13c8 62 60 212 110 344s98 247 98 247
c1 1 1 4 1 6c0 8 -6 14 -14 14c0 0 -62 2 -128 3h-74z" />
    <glyph glyph-name="eight" unicode="8" horiz-adv-x="428" 
d="M252.767 474c-46 0 -97.001 -21 -142.001 -50c-32 -21 -62 -48 -82 -77c-17.417 -25.2539 -28.7666 -52.0244 -28.7666 -79.6514c0 -4.09766 0.25 -8.21484 0.766602 -12.3486c4 -32 25 -62 64 -85c24 -14 54 -24 92 -33l-2 -2c-51 -47 -91 -119 -91 -192v-2
c3 -26 19 -45 39 -54c13.5088 -6.0791 28.8428 -8.96484 45.3848 -8.96484c7.94824 0 16.1758 0.666016 24.6143 1.96387c52 8 112 36 159 70c23 17 43 36 57 56c11.7334 16.7617 19.9551 34.9287 19.9551 53.3223c0 3.55371 -0.306641 7.11621 -0.954102 10.6787
c-4 22 -19 41 -46 54s-65 23 -117 27c-4 0 -8 1 -12 2c4 2 8 3 12 4c8.74902 2.78418 16.8652 4.14453 24.4121 4.14453c11.4297 0 21.5527 -3.12109 30.5879 -9.14453c2 -2 5 -3 8 -3c8 0 15 7 15 15c0 4 -3 10 -6 12c-13.9619 9.71289 -30.5029 13.8984 -47.6104 13.8984
c-11.0742 0 -22.3857 -1.75391 -33.3887 -4.89746c-17 -5 -34 -14 -50 -25c-47 9 -82 21 -106 35c-34 19 -48 41 -51 63c-0.380859 2.79395 -0.568359 5.65332 -0.568359 8.56641c0 20.0225 8.85449 42.6094 24.5684 64.4336c18 25 43 50 73 69
c42.3252 27.5107 91.1191 44.0742 130.235 44.0742c16.335 0 30.9824 -2.88867 42.7656 -9.0752c20 -10 34 -29 39 -64c1 -7 1.51953 -14.6797 1.51953 -23.0479c0 -33.4717 -8.32031 -77.9521 -27.5205 -133.952v-4c0 -8 6 -15 14 -15c6 0 11 5 13 10
c19.7607 56.9102 28.9004 103.824 28.9004 141.729c0 10.0508 -0.642578 19.4678 -1.90039 28.2705c-6 42 -26 71 -54 86c-18 9 -38 13 -59 13zM192.766 130c15 -3 32 -4.99902 50 -6.99902c50 -4 85 -13 106 -24s29 -22 31 -34
c0.289062 -1.73242 0.431641 -3.52734 0.431641 -5.37891c0 -10.9736 -5.01953 -23.9316 -14.4316 -37.6221c-11 -16 -30 -33 -51 -49c-43 -32 -101 -58 -146 -65c-8.25488 -1.07715 -15.8652 -1.63867 -22.832 -1.63867c-12.4443 0 -22.834 1.79199 -31.168 5.63867
c-12 6 -20 14 -23 32c0 62 38 128 83 170c6 6 12 11 18 16z" />
    <glyph glyph-name="nine" unicode="9" horiz-adv-x="423" 
d="M202.047 475c-9 0 -18.002 0 -27.002 -2c-36 -8 -76 -32 -119 -78c-37.9482 -37.9482 -56.0469 -86.1768 -56.0469 -134.192c0 -43.4023 15.1367 -83.4922 49.0469 -104.808c15.7324 -9.88867 34.4951 -15.333 55.7432 -15.333c26.0244 0 55.7773 8.16602 88.2578 26.333
c50 28 107 80 172 162c-9 -43 -23 -107 -48 -172c-44 -118 -118 -238 -234 -265c-6 -1 -11 -8 -11 -14c0 -8 6 -14 14 -14h3c132 30 210 162 255 283s59 235 59 235v2c0 8 -6 14 -14 14c-4 0 -10 -3 -12 -6c-78 -109 -145 -170 -198 -200
c-29.2148 -16.5371 -53.5684 -23.0469 -73.5625 -23.0469c-16.2783 0 -29.667 4.31445 -40.4375 11.0459c-23.1953 14.4971 -37.0498 44.874 -37.0498 80.2969c0 39.7168 16.2295 81.8828 49.0508 114.704c40 44 75 64 104 70c7.25 1.5 14.1875 2.1875 20.8438 2.1875
c19.9688 0 37.4062 -6.1875 53.1562 -15.1875c42 -24 67 -70 67 -70c2 -4 8 -8 13 -8c8 0 14 6 14 14c0 2 -1 5 -2 7c0 0 -26 53 -77 82c-19 11 -42 18 -68 18z" />
    <glyph glyph-name="colon" unicode=":" horiz-adv-x="135" 
d="M70 154c-6 0 -11 -5 -13 -11l-6 -21c0 -1 -1 -3 -1 -4c0 -8 6 -15 14 -15c6 0 12 5 14 11l6 21c0 1 1 3 1 4c0 8 -6 15 -14 15h-1zM70 12c-6 0 -11 -5 -13 -11l-6 -21c0 -1 -1 -3 -1 -4c0 -8 6 -15 14 -15c6 0 12 5 14 11l6 21c0 1 1 3 1 4c0 8 -6 15 -14 15h-1z" />
    <glyph glyph-name="semicolon" unicode=";" horiz-adv-x="183" 
d="M118 154c-6 0 -11 -5 -13 -11l-7 -21v-4c0 -8 6 -15 14 -15c6 0 12 5 14 11l6 21c0 1 1 3 1 4c0 8 -6 15 -14 15h-1zM114 12c-6 0 -13 -6 -14 -12c-5 -24 -15 -39 -24 -47s-16 -10 -16 -10c-5 -2 -10 -8 -10 -14c0 -8 7 -14 15 -14c1 0 4 1 5 1c0 0 12 4 25 16
s27 32 33 62c0 1 1 2 1 3c0 8 -7 15 -15 15z" />
    <glyph glyph-name="less" unicode="&#x3c;" horiz-adv-x="313" 
d="M240 295c-3 0 -7 -1 -9 -3c-54 -40 -101 -79 -174 -124c-4 -2 -7 -8 -7 -12c0 -6 5 -13 11 -14l185 -38h3c8 0 14 6 14 14c0 7 -5 13 -11 14l-150 31c58 38 101 72 147 106c3 2 5 8 5 12c0 8 -6 14 -14 14z" />
    <glyph glyph-name="equal" unicode="=" horiz-adv-x="345" 
d="M64 224c-8 0 -14 -6 -14 -14s6 -15 14 -15h217c8 0 14 7 14 15s-6 14 -14 14h-217zM64 132c-8 0 -14 -6 -14 -14s6 -14 14 -14h217c8 0 14 6 14 14s-6 14 -14 14h-217z" />
    <glyph glyph-name="greater" unicode="&#x3e;" horiz-adv-x="314" 
d="M73 295c-8 0 -14 -6 -14 -14c0 -4 3 -10 6 -12c46 -34 89 -68 147 -106l-150 -31c-6 -1 -12 -7 -12 -14c0 -8 7 -14 15 -14h3l184 38c6 1 12 8 12 14c0 4 -3 10 -7 12c-73 45 -121 84 -175 124c-2 2 -6 3 -9 3z" />
    <glyph glyph-name="question" unicode="?" horiz-adv-x="426" 
d="M298.577 580c-62 0 -127.999 -36 -176.999 -84c-41.0527 -40.2148 -71.5762 -89.5547 -71.5762 -136.847c0 -9.15527 1.14355 -18.2334 3.57617 -27.1533c2 -6 8 -11 14 -11c8 0 14 7 14 15v4c-1.47559 5.60547 -2.18945 11.5596 -2.18945 17.7783
c0 35.9365 23.8271 80.7129 62.1885 118.222c45 44 107 75 157 75c21 0 33 -5 40 -10s10 -12 10 -25c0 -25 -18 -67 -43 -116c-50 -97 -131 -220 -156 -326c0 -1 -1 -3 -1 -4c0 -8 6 -14 14 -14c6 0 13 5 14 11c23 97 103 221 155 320c26 50 45 93 45 129c0 18 -5 36 -19 47
s-34 17 -59 17zM146.578 12c-6 0 -13 -6 -14 -12l-4 -26v-2c0 -8 6 -15 14 -15c7 0 13 5 14 12l5 26v2c0 8 -6 15 -14 15h-1z" />
    <glyph glyph-name="at" unicode="@" horiz-adv-x="588" 
d="M379.027 353c-21 0 -45.002 -2 -71.002 -6c-78 -15 -143 -66 -188 -129c-44.1641 -61.8301 -70.0273 -134.256 -70.0273 -199.315c0 -68.3721 29.0752 -127.373 94.0283 -148.686c17.4736 -5.7334 37.0352 -8.7832 58.8672 -8.7832
c58.1289 0 132.354 21.623 226.134 71.7842c4 2 8 7 8 12c0 8 -6 15 -14 15c-2 0 -5 -1 -7 -2c-92.2656 -49.0615 -163.083 -68.0957 -214.415 -68.0957c-18.7676 0 -34.9307 2.54395 -48.585 7.0957c-51 17 -74 61 -74 119s23 127 65 185c41 58 100 103 169 117
c26.9219 4.25098 50.4971 6.27148 70.9375 6.27148c22.8369 0 41.7598 -2.52148 57.0625 -7.27051c30 -9 47 -23 57 -41c7.6543 -13.7773 11.0605 -30.6309 11.0605 -48.8779c0 -29.4326 -8.86328 -62.4922 -23.0605 -92.1221c-12 -24 -26 -45 -41 -61s-30 -25 -38 -26
c-4 -1 -7 0 -10 2s-5 6 -8 14c-3.66211 9.76465 -5.83398 25.4893 -5.83398 46.9463c0 13.7002 0.885742 29.7373 2.83398 48.0527v1c0 8 -7 15 -15 15c-6 0 -13 -6 -14 -12c0 -1 -2 -5 -5 -10c-2 1 -15 7 -34 8c-1.12988 0.0537109 -2.2793 0.0810547 -3.44727 0.0810547
c-20.542 0 -46.6289 -8.58789 -65.5527 -35.082c-19 -25 -30 -46 -33 -65c-2 -9 -1 -19 4 -27s16 -13 25 -14c8 -1 14 2 20 5s12 8 19 13c13 10 28 24 42 38c10 10 19 21 28 31c0 -22 3 -39 8 -53c4 -12 10 -21 19 -27s19 -8 29 -7c20 3 39 16 56 34s33 42 46 69
c15.2686 32.3701 26.4346 68.8428 26.4346 103.724c0 22.2305 -4.53516 43.8145 -15.4346 63.2773c-14 25 -39 45 -74 55c-18 5 -38 8 -61 8h-9zM314.025 133h3c8 0 14 -2 18 -4c-9 -11 -18 -22 -29 -33c-13 -14 -27 -26 -39 -35c-6 -4 -11 -8 -15 -10s-7 -2 -5 -2h-3
s0 2 1 7c2 10 11 30 28 53c14 19 28 24 41 24zM244.025 49z" />
    <glyph glyph-name="A" unicode="A" horiz-adv-x="611" 
d="M480 569c-23 0 -44.998 -12.999 -67.998 -32.999s-48 -48 -73 -81c-51 -67 -105 -155 -154 -247c-28 -52 -54 -105 -77 -156c-34 -6 -67 -14 -98 -24c-6 -2 -10 -7 -10 -13c0 -8 6 -15 14 -15c1 0 4 1 5 1c24 7 48 14 74 19c-12 -26 -22 -52 -31 -76
c-15 -39 -27 -73 -34 -102c-4.6084 -19.0908 -7.4834 -34.7148 -7.4834 -48.2988c0 -7.05078 0.774414 -13.5518 2.48242 -19.7021c2 -6 7 -10 13 -10c8 0 15 6 15 14c0 1 -1 3 -1 4c-0.582031 1.74609 -0.910156 4.67773 -0.910156 8.62207
c0 9.61035 1.94727 25.2344 6.91016 44.3779c7 27 18 61 33 99c11 29 24 59 39 92c97.4717 16.5908 199.722 20.7568 275.698 20.7568c33.9287 0 62.6182 -0.831055 83.3018 -1.75684c-21 -141 -45 -256 -45 -256v-3c0 -8 6 -15 14 -15c7 0 13 6 14 12c0 0 24 118 45 261
c5 0 8 -1 8 -1h1c8 0 15 6 15 14c0 7 -7 15 -14 15h-6c4 32 9 64 13 97c8.86816 78.2051 15.1367 155.76 15.1367 221.659c0 15.8379 -0.362305 31.002 -1.1377 45.3408c-2 37 -7 67 -16 91c-5 12 -11 22 -19 30s-19 12 -31 12zM480.002 541.001
c5 0 7.99902 -1.00098 11.999 -5.00098s8 -10 12 -19c7 -18 12 -48 14 -83c0.775391 -13.5635 1.1377 -28.1035 1.1377 -43.4297c0 -63.7725 -6.26855 -141.171 -15.1367 -218.569c-4 -33 -8 -66 -13 -98h-10c-17 1 -38 2 -62 2
c-6.9082 0.0947266 -14.085 0.144531 -21.502 0.144531c-70.9648 0 -163.961 -4.56348 -254.498 -18.1445h-1c21 45 44 91 69 137c49 91 102 178 151 243c25 32 48 59 69 77s39 26 49 26z" />
    <glyph glyph-name="B" unicode="B" horiz-adv-x="771" 
d="M545.095 560c-80 0 -166.997 -14.0049 -247.997 -37.0049c-115 -33 -217 -83 -267 -148c-18.6738 -24.6494 -30.0947 -52.0889 -30.0947 -80.2334c0 -9.53516 1.31055 -19.1514 4.09375 -28.7676c11 -38 42 -75 95 -110c2 -1 6 -2 8 -2c8 0 15 6 15 14c0 4 -3 10 -7 12
c-50 33 -75 65 -83 94c-2.04883 7.42871 -3.04785 14.6602 -3.04785 21.7793c0 20.6729 8.42773 40.3936 24.0488 61.2217c42 55 140 107 252 139c79.6797 22.7656 165.434 35.4092 242.857 35.4092c31.4053 0 61.4395 -2.08008 89.1426 -6.4082c48 -8 87 -23 115 -44
c28.5537 -21.415 44.0449 -50.1484 44.0449 -90.1523c0 -69.21 -64.4834 -146.701 -159.045 -202.847c-79 -47 -179 -80 -272 -83c5 27 12 54 18 80c24 98 50 177 50 177v4c0 8 -6 15 -14 15c-6 0 -12 -4 -14 -10c0 0 -26 -80 -50 -179c-7 -28 -14 -57 -20 -87
c-10 0 -19 0 -28 1h-2c-8 0 -14 -6 -14 -14c0 -7 6 -13 13 -14c0 0 10 -1 26 -4c-9 -48.75 -15.1875 -97.5 -15.1875 -139.922c0 -14.1406 0.6875 -27.5781 2.1875 -40.0781c1 -7 7 -13 14 -13c8 0 15 6 15 14l-1 2c-1.12598 10.1357 -1.64355 21.1846 -1.64355 32.9531
c0 40.4785 6.12109 89.4629 14.6436 139.047c23 -5 52 -12 79 -22c32 -12 62 -29 80 -49c12.9424 -14.3809 20.7148 -29.7959 20.7148 -48.8467c0 -7.44434 -1.18652 -15.4434 -3.71484 -24.1533c-7 -25 -32 -52 -66 -74s-77 -40 -116 -50
c-22.3799 -5.73828 -44.1016 -8.5127 -62.3301 -8.5127c-13.5371 0 -25.1475 1.53027 -33.6709 4.51367c-10 3 -15 8 -18 14s-3 14 2 28c1 1 1 5 1 6c0 8 -6 14 -14 14c-6 0 -12 -5 -14 -10c-3.74902 -10.1748 -5.77734 -19.7764 -5.77734 -28.6504
c0 -7.69629 1.52539 -14.8457 4.77637 -21.3486c7 -14 20 -24 35 -29c12.5479 -4.18262 26.8447 -6.09082 42.3057 -6.09082c21.5049 0 45.2607 3.69141 69.6943 10.0908c42 11 88 29 125 53s67 54 77 90c3.23633 10.7881 4.72656 21.2852 4.72656 31.3535
c0 27.2646 -10.9307 51.3887 -27.7275 69.6465c-23 25 -57 42 -91 55c-8 3 -15 7 -23 9c80 12 160 42 227 82c99.6826 59.2178 174.039 141.813 174.039 227.598c0 48.2598 -21.3516 85.8613 -55.0391 112.403c-33 26 -78 41 -129 49c-25 4 -52 6 -80 7h-16z" />
    <glyph glyph-name="C" unicode="C" horiz-adv-x="735" 
d="M477.641 570c-47 0 -106.997 -34 -192.997 -102h-1c-136 -115 -220 -239 -259 -351c-16.5547 -47.542 -24.6406 -93.1016 -24.6406 -134.69c0 -56.3877 14.8643 -105.477 43.6406 -142.31c33.333 -42.667 85.7773 -66.667 152.592 -66.667
c33.4072 0 70.4072 6 110.407 18.667c120 38 272 136 447 316c2 2 4 7 4 10c0 8 -7 14 -15 14c-3 0 -8 -2 -10 -4c-173 -178 -321 -273 -434 -309c-38.0518 -12.123 -72.1348 -17.6689 -102.211 -17.6689c-59.2393 0 -102.934 21.5156 -130.791 56.6689
c-23.9355 30.2041 -36.8281 72.4248 -36.8281 122.775c0 38.001 7.34375 80.6328 22.8281 126.225c36 106 117 227 250 339c84 66 145 96 176 96c15 0 23 -5 29 -17c4.9375 -9.87402 8.52051 -27.1973 8.52051 -49.7402c0 -4.85254 -0.166016 -9.94629 -0.520508 -15.2598
v-1c0 -8 6 -14 14 -14c7 0 15 6 15 13c0.378906 6.24512 0.578125 12.2754 0.578125 18.084c0 24.8848 -3.66016 45.7012 -12.5781 61.916c-11 20 -31 32 -54 32z" />
    <glyph glyph-name="D" unicode="D" horiz-adv-x="824" 
d="M544.095 560c-80 0 -166.999 -14.001 -247.999 -37.001c-115 -33 -216 -83 -266 -148c-18.6738 -24.6494 -30.0947 -52.0879 -30.0947 -80.2324c0 -9.53516 1.31055 -19.1514 4.09375 -28.7676c11 -38 42 -75 95 -110c2 -1 6 -2 8 -2c8 0 14 6 14 14c0 4 -2 10 -6 12
c-50 33 -75 65 -83 94c-2.15234 7.80371 -3.21875 15.3896 -3.21875 22.8564c0 20.2812 7.87012 39.6787 23.2197 60.1445c42 55 140 107 252 139c79.6797 22.7656 165.433 35.4092 242.856 35.4092c31.4053 0 61.4395 -2.08008 89.1426 -6.4082c48 -8 88 -23 116 -44
c27 -21 43 -48 44 -86c0 -192 -149 -369 -304 -481c-49 21 -101 31 -148 31c-0.524414 7.54785 -0.773438 15.4258 -0.773438 23.5781c0 69.6104 18.1846 159.228 38.7734 234.421c24 89 50 158 50 158c1 1 1 4 1 5c0 8 -6 15 -14 15c-6 0 -12 -5 -14 -10
c0 0 -26 -71 -50 -161c-20.6807 -76.4277 -39.7441 -166.6 -39.7441 -241.438c0 -8.39355 0.240234 -16.5947 0.744141 -24.5615c-6 0 -12 -1 -17 -2c-36 -5 -69 -14 -95 -30s-45 -38 -52 -64c-2.66699 -10 -4 -19.5557 -4 -28.3701
c0 -4.40723 0.333008 -8.62988 1 -12.6299c2 -12 10 -23 19 -30c13.0674 -10.3164 28.9727 -14.0107 47.7158 -14.0107c8.50977 0 17.6045 0.761719 27.2842 2.01074c61 9 146 46 231 102c7 5 14 9 21 14c10 -5 19 -9 29 -15c2 -1 6 -2 8 -2c8 0 14 6 14 14c0 5 -3 11 -7 13
l-18 9c155 116 303 294 303 495c-1 46 -22 83 -55 109s-77 41 -128 49c-25 4 -53 6 -81 7h-16zM344.096 -84.001c38 0 80 -8 120 -22c-2 -1 -4 -3 -6 -4c-83 -55 -165 -89 -219 -97c-7.38086 -1.09375 -14.1631 -1.58984 -20.2871 -1.58984
c-16.2783 0 -27.8994 3.50293 -33.7129 8.58984c-4 3 -7 7 -8 13s0 16 3 28c5 18 18 33 39 46s50 23 83 27c8 1 17 2 26 2h16z" />
    <glyph glyph-name="E" unicode="E" horiz-adv-x="617" 
d="M536.039 560c-22 0 -45.0039 -3.99707 -70.0039 -9.99707c-42 -11 -88 -29 -125 -53s-67 -54 -77 -90c-3.23633 -10.7881 -4.72656 -21.2119 -4.72656 -31.1748c0 -26.9766 10.9307 -50.5674 27.7275 -68.8252c23 -25 57 -43 91 -56c8 -3 15 -6 23 -8
c-80 -12 -160 -42 -227 -82c-99.6826 -59.2178 -174.039 -142.787 -174.039 -228.597c0 -54.4932 30.1543 -94.8887 74.0391 -120.403c41.2148 -23.9619 95.291 -35.0625 153.423 -35.0625c2.51855 0 5.04492 0.0205078 7.57812 0.0625c121 2 260 50 333 146c2 2 3 6 3 9
c0 8 -7 14 -15 14c-4 0 -9 -3 -11 -6c-65 -86 -196 -134 -310 -135c-2.20508 -0.0390625 -4.40332 -0.0585938 -6.59277 -0.0585938c-54.4082 0 -103.838 11.8701 -139.406 32.0576c-37.7578 21.4297 -60.0449 51.8428 -60.0449 96.1523
c0 69.21 64.4834 146.701 159.045 202.847c84.377 50.0986 191.156 83.9746 289.784 83.9746c13.5869 0 27.0186 -0.642578 40.2158 -1.97461h2c8 0 14 6 14 14c0 7 -6 13 -13 14c0 0 -70 7 -133 31c-32 12 -62 29 -80 49
c-12.9424 14.3809 -20.7148 29.7959 -20.7148 48.8477c0 7.44434 1.18652 15.4434 3.71484 24.1533c7 25 32 52 66 74s76 40 115 50c22.3799 5.73828 44.4307 8.5127 62.9395 8.5127c13.7451 0 25.5371 -1.53027 34.0605 -4.51367c10 -3 15 -8 18 -14s3 -14 -2 -28
c0 -1 -1 -4 -1 -5c0 -8 6 -15 14 -15c6 0 12 5 14 10c3.74902 10.1748 5.77734 19.7764 5.77734 28.6504c0 7.69629 -1.52539 14.8457 -4.77637 21.3486c-7 14 -20 24 -35 29c-11 4 -24 6 -38 6h-4z" />
    <glyph glyph-name="F" unicode="F" horiz-adv-x="486" 
d="M464 586l-23.999 0.000976562c-32 0 -65 -1 -98 -2c-132 -2 -259 -7 -259 -7c-8 0 -14 -6 -14 -14s6 -15 14 -15h1s24 1 58 2c-8 -36 -36 -167 -64 -319c-6 -35 -13 -70 -19 -105c-21 -1 -38 -3 -50 -8c-5 -2 -9 -9 -9 -14c0 -8 6 -14 14 -14c2 0 5 0 6 1c4 2 17 3 34 5
c-7 -44 -14 -88 -19 -128c-8.52246 -62.7549 -14.6436 -117.707 -14.6436 -158.811c0 -11.9502 0.517578 -22.7295 1.64355 -32.1895c1 -7 8 -13 15 -13c8 0 14 6 14 14v2c-0.924805 8.08984 -1.36816 17.9951 -1.36816 29.4326c0 38.0498 4.91016 93.0566 13.3682 154.566
c6 42 12 88 20 134h9c10.5439 0.292969 21.6885 0.414062 33.2324 0.414062c27.8701 0 58.0684 -0.707031 87.7666 -1.41406c84 -2 161 -7 161 -7h1c8 0 14 6 14 14s-5 15 -13 15c0 0 -78 5 -162 7c-21 1 -42 1 -63 1h-59h-4l18 99c30 163 61 304 66 325c47 1 107 4 170 5
c46.6689 0.707031 94.3379 1.41406 137.35 1.41406c17.8164 0 34.834 -0.121094 50.6504 -0.414062c27 0 51 -2 69 -3s32 -4 34 -5c1 -1 3 -1 5 -1c8 0 14 7 14 15c0 5 -4 11 -9 13c-10 4 -23 6 -42 7s-44 2 -71 2c-20 0 -43 1 -66 1z" />
    <glyph glyph-name="G" unicode="G" 
d="M460.269 562c-4 0 -8.00098 -0.00195312 -13.001 -1.00195c-38 -4 -85 -26 -145 -76c-165 -136 -266 -324 -294 -471c-5.39746 -28.5293 -8.26855 -55.5723 -8.26855 -80.5557c0 -39.8193 7.29199 -74.4072 23.2686 -101.443c13 -22 32 -39 56 -47
c10.9443 -3.64844 22.9277 -5.4248 35.8564 -5.4248c15.4238 0 32.1924 2.52832 50.1445 7.4248c163 46 268 122 332 187c20 20 36 39 48 56c-25 -146 -46 -249 -46 -249v-3c0 -8 6 -14 14 -14c7 0 13 6 14 12c0 0 28 136 58 322v2c0 8 -6 14 -14 14c-5 0 -11 -4 -13 -9
c0 0 -20 -49 -81 -111s-161 -136 -320 -180c-14.5 -4 -27.25 -5.75 -38.625 -5.75s-21.375 1.75 -30.375 4.75c-18 6 -30 17 -40 34c-12.5459 21.3291 -19.1895 52.1025 -19.1895 89.3584c0 22.1338 2.34473 46.5547 7.18945 72.6426c27 139 125 323 284 454
c58 48 101 67 130 70c3.45703 0.357422 6.72949 0.530273 9.83398 0.530273c22.9385 0 36.7158 -9.4375 48.166 -23.5303c26 -33 28 -93 28 -93c0 -8 6 -14 14 -14s15 6 15 14v1s1 66 -34 110c-15 19 -40 34 -71 34z" />
    <glyph glyph-name="H" unicode="H" horiz-adv-x="605" 
d="M199 577c-6 0 -13.001 -4.99805 -14.001 -10.998c0 0 -35 -158 -68 -335c-11 -61 -22 -123 -31 -183c-26 -5 -52 -12 -76 -20c-6 -2 -10 -7 -10 -13c0 -8 6 -15 14 -15c1 0 4 1 5 1c20 6 41 11 62 16c-2 -17 -5 -33 -7 -49
c-8.32227 -61.2822 -13.7822 -115.123 -13.7822 -155.893c0 -13.1182 0.56543 -24.8828 1.78223 -35.1074c1 -7 7 -13 14 -13c8 0 14 6 14 14v2c-0.924805 8.08984 -1.36816 17.9951 -1.36816 29.4326c0 38.0498 4.91016 93.0566 13.3682 154.566c3 19 6 39 9 59
c100.701 18.8359 208.751 23.501 288.786 23.501c30.4385 0 56.8252 -0.674805 77.2139 -1.50098c-4 -27 -8 -52 -11 -77c-8.32227 -61.2822 -13.7822 -115.123 -13.7822 -155.893c0 -13.1182 0.56543 -24.8828 1.78223 -35.1074c1 -7 7 -13 14 -13c8 0 14 6 14 14v2
c-0.924805 8.08984 -1.36816 17.9951 -1.36816 29.4326c0 38.0498 4.91016 93.0566 13.3682 154.566c3 26 8 52 12 80c11 -1 17 -1 17 -1h1c8 0 15 6 15 14c0 7 -7 15 -14 15c0 0 -6 0 -15 1c8 50 18 102 27 153c33 177 68 334 68 334v3c0 8 -6 14 -14 14
c-6 0 -13 -5 -14 -11c0 0 -35 -158 -68 -335c-10 -52 -19 -105 -27 -157c-17 1 -39 2 -63 2c-7.27246 0.0908203 -14.834 0.140625 -22.6543 0.140625c-78.2041 0 -182.254 -4.95898 -281.345 -23.1406c9 56 19 116 30 173c33 177 68 334 68 334v3c0 8 -6 14 -14 14z" />
    <glyph glyph-name="I" unicode="I" horiz-adv-x="245" 
d="M230 590c-14 0 -27 -1 -40 -3c-29 -4 -51 -11 -51 -11c-6 -2 -10 -8 -10 -14c0 -8 6 -14 14 -14h4s21 6 47 10c1 0 2 1 3 1c-4 -18 -35 -162 -66 -328c-16 -89 -33 -182 -44 -263c-8.54102 -61.4951 -13.4346 -115.695 -13.4346 -156.37
c0 -6.94824 0.142578 -13.502 0.43457 -19.6299c-11 -1 -21 -2 -29 -4c-25 -5 -38 -12 -38 -12c-4 -2 -7 -8 -7 -13c0 -8 6 -14 14 -14c2 0 5 1 7 2c0 0 7 5 29 9c12.7559 2.31934 29.5449 3.96582 51.3428 3.96582c15.7979 0 34.2266 -0.865234 55.6572 -2.96582h2
c8 0 14 6 14 14c0 7 -6 14 -13 15c-22 2 -40 3 -57 3c-0.291992 5.54395 -0.43457 11.5781 -0.43457 18.0645c0 37.9697 4.89355 91.4404 13.4346 152.936c11 80 27 174 43 262c33 177 67 334 67 334l1 1c17 0 34 -1 47 -6c1 -1 3 -1 5 -1c8 0 14 6 14 14c0 5 -4 12 -9 14
c-15 6 -31 8 -47 8h-7z" />
    <glyph glyph-name="J" unicode="J" horiz-adv-x="631" 
d="M363.142 561l-7.99902 -0.00390625c-56 -1 -115 -11 -168 -27c-47 -14 -89 -33 -122 -55s-58 -46 -64 -75c-0.766602 -3.57617 -1.1416 -7.2832 -1.1416 -11.0371c0 -10.9414 3.18457 -22.2842 9.14062 -31.9639c8 -13 22 -25 40 -35c37 -20 94 -36 180 -47h2
c8 0 14 6 14 14c0 7 -6 13 -13 14c-84 10 -138 27 -169 44c-16 9 -25 17 -30 25s-6 14 -4 22c3 16 21 37 51 57s71 37 116 51c53.0654 15.9199 112.041 25.9297 166.678 25.9297c38.0283 0 73.9541 -4.84863 104.322 -15.9287c37 -13 65 -35 81 -67
c9.61914 -19.2383 15.624 -42.8145 15.624 -71.5967c0 -19.0918 -2.64258 -40.4746 -8.62402 -64.4023c-9 -37 -20 -72 -30 -105c-8.08203 0.808594 -16.2861 1.20898 -24.5967 1.20898c-32.8203 0 -67.2939 -6.23828 -102.404 -18.208c-66 -22 -133 -60 -188 -106
s-98 -99 -116 -151c-5.33398 -15.4092 -8.20898 -30.8184 -8.20898 -46.0195c0 -10.4473 1.3584 -20.7959 4.20996 -30.9785c7 -25 24 -48 50 -65c16.9053 -11.2705 37.7314 -16.6602 60.2686 -16.6602c13.457 0 27.5244 1.92188 41.7314 5.66016c38 10 80 35 121 75
c65 64 130 168 182 320c8 -2 16 -5 23 -9c2 -1 5 -1 7 -1c8 0 14 6 14 14c0 5 -3 11 -8 13c-9 4 -18 7 -27 10c10 32 20 66 29 103c6.46875 26.2793 9.50488 50.2705 9.50488 72.1719c0 32.2686 -6.59082 60 -18.5049 83.8281c-20 40 -55 66 -97 81c-34 12 -73 18 -114 18z
M501.143 180.996c5 0 10 -0.999023 15 -0.999023c-50 -146 -113 -245 -173 -304c-39 -38 -77 -59 -109 -68c-11.7393 -3.30176 -22.6709 -4.85352 -32.7949 -4.85352c-17.4736 0 -32.542 4.62305 -45.2051 12.8535c-22 14 -34 30 -39 48
c-2.01562 7.25586 -3.05664 14.8369 -3.05664 22.7432c0 11.7061 2.28125 24.125 7.05664 37.2559c15 44 56 95 108 139s116 81 178 101c31 10 61 16 88 17h6z" />
    <glyph glyph-name="K" unicode="K" horiz-adv-x="300" 
d="M138.782 577c-6 0 -13 -4.99902 -14 -10.999c0 0 -35 -158 -68 -335c-16 -89 -32 -182 -43 -263c-8.32227 -61.2822 -13.7822 -115.123 -13.7822 -155.893c0 -13.1182 0.56543 -24.8828 1.78223 -35.1074c1 -7 7 -13 14 -13c8 0 15 6 15 14v2
c-0.924805 8.08984 -1.36816 17.9951 -1.36816 29.4326c0 38.0498 4.91016 93.0566 13.3682 154.566c18 -11 87 -53 166 -97c45 -25 92 -51 132 -70c20 -10 38 -17 53 -23s27 -10 38 -10c8 0 14 6 14 14s-6 15 -14 15c-3 0 -14 2 -28 7s-31 14 -50 23c-39 19 -86 44 -131 69
c-79 44 -143 83 -160 93c22 35 262 404 455 567c3 2 5 7 5 11c0 8 -6 14 -14 14h-1c-3 0 -7 -1 -9 -3c-175 -148 -385 -457 -449 -555c10 66 23 138 36 207c33 177 67 334 67 334c0 1 1 2 1 3c0 8 -7 14 -15 14z" />
    <glyph glyph-name="L" unicode="L" horiz-adv-x="219" 
d="M168 577c-6 0 -12.999 -5 -13.999 -11c0 0 -35 -158 -68 -335c-16 -89 -32 -182 -43 -263c-8.24805 -61.8604 -13.7744 -116.918 -13.7744 -157.878c0 -8.7002 0.249023 -16.7646 0.774414 -24.123c-12 -2 -19 -3 -19 -3c-6 -1 -11 -8 -11 -14c0 -8 6 -15 14 -15
c1 0 2 1 3 1c0 0 50 10 116 17c29.2959 3.10742 61.5469 5.22949 93.6045 5.22949c40.165 0 80.0273 -3.33105 113.396 -12.2295c1 0 3 -1 4 -1c8 0 15 6 15 14c0 6 -5 12 -11 14c-34 9 -71 13 -109 14c-5.09082 0.133789 -10.1641 0.196289 -15.2148 0.196289
c-32.6455 0 -64.3408 -2.59766 -93.7861 -5.19531c-27 -3 -51 -7 -71 -10c-0.291992 5.54395 -0.43457 11.5986 -0.43457 18.124c0 38.2012 4.89355 92.5264 13.4346 154.876c11 80 27 174 43 262c33 177 67 334 67 334c0 1 1 2 1 3c0 8 -7 14 -15 14z" />
    <glyph glyph-name="M" unicode="M" horiz-adv-x="891" 
d="M291 569h-5.00098c-12 -2 -21 -10 -29 -19s-16 -21 -24 -36c-33 -59 -69 -159 -103 -267c-69 -217 -130 -465 -130 -465v-4c0 -8 6 -14 14 -14c6 0 13 5 14 11c0 0 61 248 129 463c34 108 71 208 101 262c8 14 15 24 21 31s11 9 12 9s1 1 4 -3s7 -15 11 -30
c5.90332 -22.6309 8.14941 -54.083 8.14941 -91.0752c0 -75.793 -9.42969 -174.843 -16.1494 -268.925c-3.80664 -53.291 -7.0332 -104.843 -7.0332 -150.685c0 -14.374 0.317383 -28.1865 1.0332 -41.3154c3 -55 11 -98 39 -120c5 -4 12 -7 18 -6s11 3 16 6
c10 6 19 16 29 28c20 24 42 60 67 103c50 86 109 202 164 308s107 201 141 244c8 10 15 17 19 20c1 -3 3 -8 3 -14c0.267578 -3.21582 0.391602 -6.79004 0.391602 -10.7617c0 -10.8516 -0.927734 -24.6699 -2.3916 -42.2393c-38 -385 -90 -690 -90 -690v-3
c0 -8 6 -14 14 -14c7 0 14 5 15 12c0 0 52 306 90 692c1.17188 14.6445 1.65723 27.2305 1.65723 38.1592c0 7.72754 -0.242188 14.627 -0.65625 20.8398c-1 15 -3 25 -12 34c-5 4 -12 7 -18 7s-10 -3 -15 -6c-9 -6 -18 -15 -27 -27c-37 -47 -89 -142 -144 -248
s-115 -222 -164 -307c-25 -43 -47 -77 -65 -99c-9 -11 -16 -18 -21 -21c-2 -1 -2 -2 -3 -2c-13 11 -23 48 -26 99c-0.71582 12.4131 -1.0332 25.623 -1.0332 39.4951c0 44.2422 3.22656 95.2148 7.0332 148.506c6.61914 92.002 16.7422 188.385 16.7422 266.531
c0 39.9209 -2.6416 75.082 -9.74219 102.47c-4 17 -10 30 -17 40c-6 9 -16 15 -26 15z" />
    <glyph glyph-name="N" unicode="N" horiz-adv-x="624" 
d="M609 577c-6 0 -11 -4 -13 -10c-101 -320 -129 -512 -177 -724c-7 -29 -15 -46 -19 -49c0 0 -3 1 -6 4c-14 15 -35 67 -53 134c-36 133 -68 328 -77 450v1c-6 61 -14 101 -24 127c-5 13 -11 22 -21 28c-5 3 -10.75 4.5 -16.375 4.5s-11.125 -1.5 -15.625 -4.5
c-18 -11 -29 -33 -42 -64s-26 -72 -39 -117c-51 -182 -98 -453 -105 -578l-1 -1c0 -8 7 -14 15 -14s14 5 14 13c7 121 53 394 104 573c13 45 26 83 38 112s26 49 31 52l1 1l1 -1c1 -1 5 -5 9 -15c8 -20 16 -59 22 -119c9 -125 42 -320 79 -456c19 -68 36 -119 59 -145
c6 -6 13 -12 22 -14s19 2 25 8c13 12 20 32 27 63c48 213 76 404 176 722c0 1 1 4 1 5c0 8 -7 14 -15 14z" />
    <glyph glyph-name="O" unicode="O" 
d="M420.581 561c-18 0 -36.002 -2.99902 -54.002 -9.99902c-37 -14 -75 -41 -111 -84c-44 -13 -84 -39 -117 -73c-70 -72 -116 -178 -132 -283c-4.30273 -28.2373 -6.58008 -56.3301 -6.58008 -83.5586c0 -74.0205 16.834 -141.653 55.5811 -188.442c26 -32 64 -54 110 -59
c7.05273 -0.766602 14.293 -1.15723 21.7285 -1.15723c41.0645 0 88.084 11.9102 142.272 38.1572l2 1c209.371 135.034 288.046 314.719 288.046 463.877c0 69.5527 -17.1064 132.468 -46.0459 181.123c-23 38 -53 68 -89 84c-18 8 -37 12 -57 13c-2 0 -4 1 -7 1z
M420.579 532.001l6.00098 -0.00195312c16 -1 31 -4 46 -11c29 -13 57 -39 77 -73c26.0674 -43.5508 41.9277 -101.351 41.9277 -166.075c0 -138.881 -73.0234 -309.642 -274.928 -439.924c-50.5576 -24.4355 -93.3047 -33.9609 -128.84 -33.9609
c-6.63672 0 -13.0225 0.332031 -19.1602 0.961914c-39 4 -69 21 -91 48c-32.6709 40.0967 -48.8018 103.9 -48.8018 174.627c0 24.5254 1.93945 49.8828 5.80176 75.373c15 99 60 201 124 267c20 20 42 37 65 50c-32 -48 -63 -110 -91 -188c0 -1 -1 -4 -1 -5
c0 -8 7 -14 15 -14c6 0 11 4 13 9c35 98 74 168 114 217c15.4268 3.85645 31.5977 5.92871 48.4551 5.92871c26.8506 0 55.4424 -5.25684 85.5439 -16.9287c1 -1 3 -1 5 -1c8 0 14 6 14 14c0 5 -4 11 -9 13c-33.333 12.5 -65.2773 18.75 -95.833 18.75
c-6.11133 0 -12.167 -0.25 -18.167 -0.75c25 24 50 40 73 48c15 6 30 8 44 8z" />
    <glyph glyph-name="P" unicode="P" horiz-adv-x="762" 
d="M544.26 560c-80 0 -167.001 -14.002 -248.001 -37.002c-115 -33 -217 -83 -267 -148c-18.4365 -24.3369 -29.2588 -51.3926 -29.2588 -79.1621c-0 -9.88574 1.37109 -19.8623 4.25879 -29.8389c11 -38 42 -75 95 -110c2 -1 6 -2 8 -2c8 0 14 6 14 14c0 4 -3 10 -7 12
c-50 33 -75 65 -83 94c-2.04883 7.42871 -3.04785 14.6602 -3.04785 21.7793c0 20.6729 8.42773 40.3936 24.0488 61.2217c42 55 140 107 252 139c79.6797 22.7656 165.434 35.4092 242.857 35.4092c31.4053 0 61.4395 -2.08008 89.1426 -6.4082c48 -8 88 -23 116 -44
c28.5244 -21.3936 44.043 -50.1279 44.043 -90.0723c0 -69.6885 -66.4404 -162.976 -161.043 -233.928c-79 -59 -177 -103 -269 -111c5 27 10 55 15 81c25 127 51 236 51 236c0 1 1 2 1 3c0 8 -6 15 -14 15h-1c-6 0 -12 -5 -13 -11c0 0 -27 -109 -52 -237
c-6 -29 -11 -58 -16 -88c-10 0 -21 1 -31 2h-2c-8 0 -14 -7 -14 -15c0 -7 6 -13 13 -14c10 -1 19 -2 29 -2c-11.7949 -73.126 -19.8799 -143.16 -19.8799 -197.95c0 -14.8906 0.597656 -28.6553 1.87988 -41.0498c1 -7 7 -13 14 -13c8 0 14 6 14 14v2
c-1.1416 9.89648 -1.66797 21.2061 -1.66797 33.6797c0 53.0674 9.52246 127.211 21.668 203.321c101 7 206 54 290 117c99.6475 74.9824 172.04 171.38 172.04 257.5c0 48.334 -21.3154 85.9297 -55.04 112.5c-33 26 -77 41 -128 49c-25 4 -53 6 -81 7h-16z" />
    <glyph glyph-name="Q" unicode="Q" horiz-adv-x="663" 
d="M433.946 561c-18 0 -36 -4 -55 -11c-54 -22 -110 -75 -161 -167c-6 -2 -10 -3 -16 -6c-32 -15 -62 -41 -88 -74c-52 -65 -90 -158 -106 -248c-5.08398 -28.5967 -7.94629 -56.8906 -7.94629 -83.8555c-0 -57.8984 13.1982 -109.667 45.9463 -145.145
c24 -26 59 -41 103 -42c1.46484 -0.0332031 2.93848 -0.0498047 4.42188 -0.0498047c43.0547 0 93.71 14.0488 155.579 43.0498h1c29 19 56 40 81 60c53 -47 114 -94 172 -122c2 -1 5 -1 7 -1c8 0 14 6 14 14c0 5 -3 11 -8 13c-53 25 -111 70 -163 115
c141.327 127.262 196.966 276.506 196.966 400.556c0 61.1553 -13.5225 116.188 -36.9668 159.444c-20 38 -48 66 -82 82c-17 8 -34 13 -53 13h-4zM433.946 532l3 -0.000976562c15 0 29 -4 42 -10c27 -13 51 -37 69 -70c20.7256 -38.4902 33.1182 -88.8848 33.1182 -145.701
c0 -115.892 -51.5576 -258.501 -189.117 -381.299c-10 9 -21 18 -30 27c-62 59 -105 109 -105 109c-2 3 -7 6 -11 6c-8 0 -14 -7 -14 -15c0 -3 1 -7 3 -9c0 0 45 -52 108 -112c9 -8 18 -16 27 -25c-23 -19 -47 -37 -74 -54
c-58.668 -27.8916 -106.235 -40.0576 -142.703 -40.0576c-1.4502 0 -2.88281 0.0195312 -4.29785 0.0576172c-37 1 -63 14 -82 34c-26.1689 28.2354 -38.1104 74.0186 -38.1104 127.551c0 24.2012 2.44043 49.9863 7.11035 76.4502c15 85 53 176 101 236c19 24 40 43 61 56
c-16 -32 -31 -68 -46 -109c0 -1 -1 -4 -1 -5c0 -8 7 -14 15 -14c6 0 11 4 13 9c19 53 39 98 59 136c5.24707 0.875 10.4941 1.32422 15.7412 1.32422l38.2588 -8.32422c2 -1 4 -1 6 -1c8 0 14 6 14 14c0 5 -4 12 -9 14c-16 7 -32 9 -48 9c46 76 93 118 135 135
c15 6 30 9 44 9z" />
    <glyph glyph-name="R" unicode="R" horiz-adv-x="791" 
d="M544.095 560c-80 0 -167.001 -14.001 -248.001 -37.001c-115 -33 -216 -83 -266 -148c-18.6738 -24.6494 -30.0947 -52.0879 -30.0947 -80.2324c0 -9.53516 1.31055 -19.1514 4.09375 -28.7676c11 -38 42 -75 95 -110c2 -1 6 -2 8 -2c8 0 14 6 14 14c0 4 -2 10 -6 12
c-50 33 -75 65 -83 94c-2.15234 7.80371 -3.21875 15.3896 -3.21875 22.8555c0 20.2812 7.87012 39.6787 23.2197 60.1445c42 55 140 107 252 139c79.6797 22.7656 165.433 35.4092 242.856 35.4092c31.4053 0 61.4395 -2.08008 89.1426 -6.4082c48 -8 88 -23 116 -44
c28.5244 -21.3936 44.043 -50.1279 44.043 -90.0723c0 -69.6885 -66.4404 -162.976 -161.043 -233.928c-79 -59 -176 -103 -268 -111c5 27 9 55 14 81c25 127 52 236 52 236v3c0 8 -6 15 -14 15c-6 0 -13 -5 -14 -11c0 0 -27 -109 -52 -237c-6 -29 -11 -58 -16 -88
c-10 0 -21 1 -31 2h-1c-8 0 -14 -7 -14 -15c0 -3 1 -6 3 -8c0 0 12 -15 34 -39c-9.19434 -62.0615 -16.04 -121.188 -16.04 -168.383c0 -14.4023 0.637695 -27.6934 2.04102 -39.6172c1 -7 8 -13 15 -13c8 0 14 6 14 14v2
c-1.0332 10.5918 -1.53223 22.8525 -1.53223 36.4541c0 39.0479 4.11621 89.1465 11.5332 142.546c68 -66 190 -162 348 -195h3c8 0 14 6 14 14c0 7 -5 13 -11 14c-164 34 -289 140 -349 202c1 8 3 15 4 23c101 7 206 54 290 117
c99.6475 74.9824 172.04 171.38 172.04 257.5c0 48.334 -21.3154 85.9297 -55.04 112.5c-33 26 -77 41 -128 49c-25 4 -53 6 -81 7h-16z" />
    <glyph glyph-name="S" unicode="S" horiz-adv-x="613" 
d="M428.009 564c-76 -1 -170.002 -39.999 -252.002 -95.999c-95.4131 -65.5967 -176.009 -152.925 -176.009 -237.44c0 -44.4141 22.2783 -84.1123 72.0088 -114.56c49 -30 123 -50 230 -60c67 -5 114 -15 143 -28s41 -26 43 -39
c0.248047 -1.6123 0.373047 -3.30176 0.373047 -5.06055c0 -12.4199 -6.2334 -28.2959 -19.373 -44.9395c-15 -19 -40 -39 -69 -57c-58 -37 -133 -66 -195 -74c-10.6377 -1.37305 -20.8047 -2.03906 -30.2979 -2.03906c-18.1729 0 -33.8789 2.44043 -45.7021 7.03809
c-18 7 -29 18 -32 39c-1 7 -7 12 -14 12c-8 0 -15 -6 -15 -14c0 -1 1 -2 1 -3c5 -30 24 -51 49 -61c16.2305 -6.49219 34.9902 -9.19141 55.458 -9.19141c11.0586 0 22.6162 0.788086 34.543 2.19141c67 9 147 40 208 79c31 19 57 40 75 63
c15.2129 19.4395 26.1406 40.3076 26.1406 61.3965c0 3.86328 -0.366211 7.7334 -1.14062 11.6035c-5 25 -26 46 -60 61s-83 25 -152 30c-104 9 -174 30 -217 56s-59 55 -59 88c0 66 72 152 164 215c80.085 54.8408 175.324 91.4951 241.525 91.4951
c9.84961 0 19.0566 -0.811523 27.4756 -2.49512c33 -7 54 -24 62 -59c2.05859 -9.00684 3.19043 -19.4043 3.19043 -31.2432c0 -34.168 -9.4248 -80.3438 -33.1904 -139.757c-1 -1 -1 -4 -1 -6c0 -8 7 -14 15 -14c5 0 11 4 13 9
c24.1621 60.7705 35.458 109.747 35.458 149.285c0 14.4629 -1.51172 27.6631 -4.45801 39.7148c-11 45 -43 72 -84 80c-10 2 -21 3 -32 3h-7z" />
    <glyph glyph-name="T" unicode="T" horiz-adv-x="319" 
d="M405 586l-24 0.000976562c-33 0 -67 -1 -101 -2c-136 -2 -266 -7 -266 -7c-8 0 -14 -6 -14 -14s6 -15 14 -15h1s117 4 246 7c-6 -26 -35 -164 -65 -324c-16 -89 -32 -182 -43 -263c-8.32227 -61.2822 -13.7822 -115.123 -13.7822 -155.893
c0 -13.1182 0.56543 -24.8828 1.78223 -35.1074c1 -7 7 -13 14 -13c8 0 14 6 14 14v2c-0.924805 8.08984 -1.36816 17.9951 -1.36816 29.4326c0 38.0498 4.91016 93.0566 13.3682 154.566c11 80 27 174 43 262c32 171 65 320 67 330
c45.2549 0.707031 91.5098 1.41406 133.107 1.41406c17.2305 0 33.6621 -0.121094 48.8926 -0.414062c28 0 51 -2 70 -3s33 -4 35 -5c1 -1 3 -1 5 -1c8 0 14 7 14 15c0 5 -4 11 -9 13c-11 4 -24 6 -43 7s-44 2 -72 2c-21 0 -44 1 -68 1z" />
    <glyph glyph-name="U" unicode="U" horiz-adv-x="642" 
d="M584.741 577l-0.999023 0.00195312c-7 0 -13 -6 -14 -13c0 0 -56 -470 -396 -723c-38.834 -28.6631 -68.2637 -40.2275 -87.499 -40.2275c-1.56836 0 -3.06934 0.0771484 -4.50195 0.227539c-19 2 -31 14 -40 39c-8.8291 23.6982 -12.6914 57.5449 -12.6914 97.627
c0 46.1758 5.12598 100.627 13.6914 157.371c31 213 106 460 106 460c0 1 1 3 1 4c0 8 -6 14 -14 14c-6 0 -12 -4 -14 -10c0 0 -75 -247 -107 -463c-8.70117 -58.7344 -14.7412 -115.103 -14.7412 -164.279c-0 -41.249 4.24902 -77.4385 14.7412 -105.721
c11 -31 34 -55 65 -58c2.45801 -0.238281 4.94043 -0.356445 7.45117 -0.356445c29.1611 0 62.1162 15.9727 103.549 46.3564c176 131 277 315 335 468c-12 -62 -25 -126 -39 -187c-38 -171 -75 -317 -75 -317c0 -1 -1 -3 -1 -4c0 -8 6 -14 14 -14c6 0 13 5 14 11
c0 0 37 146 75 317s79 366 85 469v1v1c0 8 -6 14 -14 14z" />
    <glyph glyph-name="V" unicode="V" horiz-adv-x="558" 
d="M579 577c-6 0 -11 -4 -13 -10c0 0 -63 -195 -137 -391c-37 -98 -77 -196 -114 -269c-18 -36 -36 -66 -51 -86c-8 -10 -14 -18 -20 -23s-10 -5 -11 -5c-7 0 -18 6 -31 24s-25 45 -38 78c-25 66 -50 155 -70 244c-40 178 -66 356 -66 356c-1 7 -7 12 -14 12
c-8 0 -14 -6 -14 -14v-3s26 -179 67 -358c20 -90 44 -179 70 -247c13 -34 27 -63 42 -84s32 -37 54 -37c11 0 19 5 28 12s17 16 26 27c17 23 35 54 54 91c38 74 78 173 115 271c75 197 137 393 137 393c0 1 1 4 1 5c0 8 -7 14 -15 14z" />
    <glyph glyph-name="W" unicode="W" horiz-adv-x="736" 
d="M690 577c-7 0 -14 -5 -15 -12c0 0 -27 -196 -65 -392c-19 -98 -40 -195 -63 -268c-11 -36 -23 -66 -34 -86c-5 -10 -11 -18 -15 -22s-7 -4 -7 -4c-7 0 -13 4 -22 17s-17 35 -24 61c-15 52 -26 122 -36 193s-19 142 -30 196c-6 27 -12 50 -20 67c-4 9 -9 17 -15 23
s-14 10 -23 10c-12 0 -18 -8 -24 -15s-13 -16 -19 -28c-13 -24 -27 -56 -43 -94c-32 -75 -69 -171 -104 -254c-17 -42 -34 -80 -49 -111s-30 -55 -40 -66l-5 -5c-4 8 -8 37 -8 84c3 381 29 691 29 691v1c0 8 -6 14 -14 14c-7 0 -14 -6 -15 -13c0 0 -26 -311 -29 -693
c0 -49 2 -78 11 -97c2 -5 5 -9 10 -12s11 -6 17 -5c11 1 18 7 25 15c14 16 28 41 44 73s34 71 51 113c35 84 71 180 103 254c16 37 30 69 42 91c6 11 12 19 16 24l4 4l1 -1c2 -2 6 -7 9 -14c6 -14 12 -36 18 -62c11 -52 20 -123 30 -194s21 -142 36 -197
c8 -27 17 -50 28 -68s26 -31 46 -31c11 0 20 6 27 13s14 17 20 28c12 23 24 55 36 92c23 74 45 173 64 271c38 197 66 393 66 393v2c0 8 -6 14 -14 14z" />
    <glyph glyph-name="X" unicode="X" horiz-adv-x="697" 
d="M113 580c-8 0 -15 -6 -15 -14c0 -3 1 -7 3 -9c0 0 139 -175 292 -368c-153 -148 -308 -306 -390 -409c-2 -2 -3 -6 -3 -9c0 -8 6 -14 14 -14c4 0 9 3 11 6c79 100 234 257 386 404c119 -150 243 -308 318 -404c2 -3 8 -6 12 -6c8 0 14 6 14 14c0 3 -1 7 -3 9
c-75 97 -201 256 -320 407c21 20 41 40 62 60c176 168 328 305 328 305c3 2 5 7 5 11c0 8 -6 14 -14 14h-1c-3 0 -7 -2 -9 -4c0 0 -153 -138 -329 -306c-20 -19 -40 -38 -60 -58c-152 192 -290 365 -290 365c-2 3 -7 6 -11 6z" />
    <glyph glyph-name="Y" unicode="Y" horiz-adv-x="538" 
d="M553.432 577l-0.99707 0.000976562c-6 0 -13 -5 -14 -11c-9 -36 -17 -70 -25 -103c-7 -20 -16 -42 -28 -65c-48 -96 -138 -218 -309 -317c-42 -24 -74 -34 -95 -34s-32 6 -40 21c-7.97266 13.6006 -11.5469 35.3398 -11.5469 62.1221
c0 30.3242 4.58105 67.1143 12.5459 105.878c30 145 103 318 103 318c1 2 2 4 2 6c0 8 -7 14 -15 14c-5 0 -11 -4 -13 -9c0 0 -74 -173 -105 -323c-8.47949 -39.749 -14.4316 -77.8125 -14.4316 -111.362c0 -29.7539 4.68066 -55.958 16.4307 -76.6387c13 -22 36 -36 65 -36
s65 13 109 39c141 82 230 179 285 266c-26 -93 -52 -171 -76 -236c-0.994141 0.00976562 -1.98438 0.0146484 -2.97168 0.0146484c-95.3574 0 -159.397 -47.6094 -195.028 -105.015c-21 -34 -32 -70 -35 -103c-0.68457 -7.5332 -1.05664 -14.9629 -1.05664 -22.1924
c0 -24.4404 4.25293 -46.6016 15.0566 -62.8076c7 -11 17 -19 29 -22c3.59961 -0.900391 7.46973 -1.35059 11.4746 -1.35059c9.34473 0 19.4248 2.4502 28.5244 7.35059c27 14 55 46 87 101c25 43 54 102 83 179c8 -1 15 -2 23 -3h3c8 0 14 6 14 14c0 7 -5 13 -12 14
c-6 1 -12 1 -18 2c35 95 72 218 111 370c23 64 26 107 26 107l1 1c0 8 -6 14 -14 14zM388.435 59.001c-28 -71 -52.999 -125.999 -75.999 -165.999c-31 -53 -58 -81 -76 -90c-9 -5 -16 -5 -20 -4s-8 5 -12 11c-6.40039 9.59961 -10.8809 27.5195 -10.8809 49.1514
c0 5.4082 0.280273 11.0479 0.879883 16.8477c3 29 13 61 31 91c30 49 82 90 163 92z" />
    <glyph glyph-name="Z" unicode="Z" horiz-adv-x="411" 
d="M394.143 583c-27 0 -58.002 -3.00098 -90.002 -8.00098c-108 -17 -225 -53 -225 -53c-6 -2 -10 -8 -10 -14c0 -8 6 -14 14 -14h5s116 37 221 53c29.2012 4.49219 57.7715 7.09277 81.9922 7.09277c18.9111 0 35.1709 -1.58496 47.0088 -5.09277c14 -4 20 -9 22 -15
c0.640625 -1.92188 1.07617 -4.25488 1.07617 -7.12988c0 -6.09863 -1.95996 -14.6367 -8.07617 -26.8701c-155 -207 -434 -626 -435 -627c-11.3691 -12.8857 -18.1426 -26.9199 -18.1426 -40.3613c0 -4.29199 0.69043 -8.52344 2.14258 -12.6377c6 -17 22 -28 41 -36
c39 -16 98 -23 165 -27c33.1289 -1.73047 68.0918 -2.42188 103.029 -2.42188c106.378 0 212.524 6.41113 265.971 9.42188c8 0 14 6 14 14s-6 15 -14 15h-1c-53.4463 -3.01074 -160.159 -9.42188 -265.538 -9.42188c-34.6094 0 -69.0742 0.691406 -101.461 2.42188
c-66 3 -124 11 -155 24c-16 7 -23 14 -25 19s0 13 12 27l1 1s281 421 435 627c0 0 1 1 1 2c8 14.667 12.4443 28.4443 12.4443 41.0371c0 6.2959 -1.11133 12.2959 -3.44434 17.9629c-7 17 -23 27 -41 32c-14 4 -30 6 -47 6h-5z" />
    <glyph glyph-name="bracketleft" unicode="[" horiz-adv-x="331" 
d="M141 580c-7 0 -13 -6 -14 -13c0 0 -65 -627 -77 -788v-1c0 -7 6 -14 13 -14l128 -7h1c8 0 14 6 14 14s-6 15 -14 15l-112 6c14 172 72 736 74 759h113c8 0 14 7 14 15s-6 14 -14 14h-126z" />
    <glyph glyph-name="backslash" unicode="\" horiz-adv-x="419" 
d="M65 580c-8 0 -15 -6 -15 -14c0 -2 1 -5 2 -7c0 0 59 -111 124 -253s138 -313 165 -431c1 -6 8 -12 14 -12c8 0 14 7 14 15v3c-28 122 -101 295 -167 437s-125 254 -125 254c-2 4 -7 8 -12 8z" />
    <glyph glyph-name="bracketright" unicode="]" horiz-adv-x="326" 
d="M121 580c-8 0 -14 -6 -14 -14s6 -15 14 -15h125c-3 -28 -60 -588 -74 -759l-108 -6c-8 0 -14 -7 -14 -15s7 -14 15 -14h1l120 7c7 0 12 6 13 13c12 159 77 787 77 787v2c0 8 -6 14 -14 14h-141z" />
    <glyph glyph-name="asciicircum" unicode="^" horiz-adv-x="258" 
d="M133 487c-4 0 -9 -2 -11 -5c-17 -19 -68 -75 -68 -75c-2 -2 -4 -7 -4 -10c0 -8 6 -14 14 -14c4 0 9 2 11 5c0 0 34 37 56 62c8 -10 18 -22 27 -32c14 -16 25 -29 25 -29c2 -3 7 -5 11 -5c8 0 14 6 14 14c0 3 -2 8 -4 10c0 0 -12 12 -25 28s-28 35 -34 44c-2 4 -8 7 -12 7
z" />
    <glyph glyph-name="underscore" unicode="_" horiz-adv-x="445" 
d="M65 0c-8 0 -15 -6 -15 -14s7 -15 15 -15h315c8 0 15 7 15 15s-7 14 -15 14h-315z" />
    <glyph glyph-name="grave" unicode="`" horiz-adv-x="169" 
d="M65 487h-1c-8 0 -14 -6 -14 -14c0 -3 2 -8 4 -10l41 -44c2 -2 7 -4 10 -4c8 0 14 6 14 14c0 3 -1 8 -3 10l-41 43c-2 2 -7 5 -10 5z" />
    <glyph glyph-name="a" unicode="a" horiz-adv-x="267" 
d="M110.647 175c-5 0 -10.999 -5.00098 -12.999 -10.001c0 -1 -1 -1 -1 -2s-2 -5 -4 -10c-5 4 -14 10 -26 12c-3.24805 0.72168 -6.72461 1.11816 -10.3584 1.11816c-16.502 0 -36.251 -8.1709 -52.6416 -31.1182c-19 -26 -33 -55 -40 -80
c-2.32422 -9.29492 -4.64844 -17.9902 -4.64844 -26.5498c0 -2.49121 0.197266 -4.9707 0.648438 -7.4502c1 -5 4 -11 8 -16s11 -8 17 -8c9 -1 15 3 21 7s12 10 19 16c13 12 28 29 42 46c3 4 5 6 8 10c-0.708984 -6.02246 -1.04102 -11.668 -1.04102 -16.9814
c0 -9.68652 1.10352 -18.2695 3.04102 -26.0186c3 -14 12 -25 23 -31c7.05176 -3.84668 14.5146 -5.63867 22.3887 -5.63867c4.4082 0 8.94531 0.561523 13.6113 1.63867c25 5 52 22 79 42s53 45 72 69c2 2 4 6 4 9c0 8 -7 14 -15 14c-4 0 -9 -2 -11 -5
c-18 -22 -42 -46 -67 -65s-50 -32 -67 -36c-9 -2 -15 -1 -18 1s-7 4 -9 13c-0.920898 3.68262 -1.41797 8.42383 -1.41797 14.2129c0 19.3643 5.55957 50.4453 19.417 92.7881c1 2 1 4 2 6c0 1 1 2 1 3v1c0 1 1 2 1 3c0 8 -7 15 -15 15zM54.6484 137.999c2 0 5 -1 7 -1
c9 -2 15 -7 15 -7l1 -1c-9 -14 -21 -30 -33 -45c-13 -17 -28 -33 -40 -44c-6 -5 -11 -10 -15 -12c-1 -1 0 -1 -1 -1c0 4 0 12 2 21c6 20 19 47 36 70c12 16 21 20 28 20z" />
    <glyph glyph-name="b" unicode="b" horiz-adv-x="278" 
d="M119.12 487c-5 0 -11 -3 -13 -8c0 0 -33 -71 -63 -164c-25.6572 -79.5371 -49.1201 -175.165 -49.1201 -261.237c0 -14.5693 0.671875 -28.8652 2.11914 -42.7627v-1v-1v-1v-1h1v-1v-1l1 -1v-1l1 -1l1 -1l1 -1l1 -1h1h1l1 -1h1h1l1 -1h1
c3.98242 -0.234375 7.89941 -0.348633 11.75 -0.348633c61.8965 0 106.538 29.5156 127.25 64.3486c5 8 9 16 11 25c39 11 81 18 119 18c8 0 15 6 15 14s-7 14 -15 14c-38 0 -78 -6 -116 -16v2c-3 19 -16 35 -35 42c-8.55859 3.08105 -17 4.52148 -25.084 4.52148
c-15.5283 0 -29.7354 -5.31445 -40.915 -14.5215c-16 -12 -27 -30 -36 -48c7 68 25 142 45 205c29 91 62 160 62 160c1 2 1 4 1 6c0 8 -6 14 -14 14zM103.12 136c4 0 9 -1 14 -3c10 -4 15 -10 17 -20v-5c-9 -3 -17 -6 -25 -9c-26 -10 -50 -22 -69 -35c3 7 5 13 8 20
c8 18 19 34 31 43c7 6 14 9 22 9h2zM123.12 74c-14 -22 -42 -42 -83 -47c18 16 46 33 79 46c1 0 3 1 4 1z" />
    <glyph glyph-name="c" unicode="c" horiz-adv-x="232" 
d="M80.4697 182h-3.99902c-13 -1 -27 -8 -42 -19c-31 -23 -60 -59 -68 -95c-0.970703 -4.36719 -1.4707 -8.79395 -1.4707 -13.1934c0 -13.7324 4.86719 -27.2031 15.4697 -37.8066c14 -14 37 -20 68 -20c52 0 101 29 139 56s63 55 63 55c2 2 4 7 4 10c0 8 -6 14 -14 14
c-3 0 -8 -1 -10 -4c0 0 -25 -26 -60 -52s-81 -50 -122 -50c-27 0 -42 5 -48 11s-8 14 -6 26c5 24 31 58 57 77c13 9 22 13 27 13s8 -1 10 -3c5 -4 7 -13 7 -13c1 -6 8 -12 15 -12c8 0 14 6 14 14v3s-3 18 -18 30c-6 5 -15 10 -26 10z" />
    <glyph glyph-name="d" unicode="d" horiz-adv-x="346" 
d="M220 487h-1c-6 0 -12 -4 -14 -10v-1s-27 -97 -61 -200c-15 -45 -31 -91 -46 -131c-5 6 -11 12 -19 17c-6.04102 3.84473 -13.8916 6.18066 -22.3926 6.18066c-6.97852 0 -14.3945 -1.57422 -21.6074 -5.18066c-16 -8 -30 -23 -45 -49l-1 -1c-12 -27 -17 -49 -17 -67
s7 -33 19 -41c8.50195 -5.66797 18.0078 -8.32422 27.4512 -8.32422c3.88477 0 7.75879 0.449219 11.5479 1.32422c13 3 27 11 37 21c17 18 32 52 50 97c9 23 19 49 28 76c-2.25 -21 -3.375 -42 -3.375 -61.7344c0 -6.57812 0.125 -13.0156 0.375 -19.2656
c1 -24 4 -45 11 -63s16 -34 32 -43c8.125 -4.7041 16.9814 -6.66504 26.0215 -6.66504c12.1006 0 24.5312 3.51367 35.9785 8.66504c20 9 38 23 56 38c35 30 63 64 63 64c2 2 3 6 3 9c0 8 -6 14 -14 14c-4 0 -9 -2 -11 -5c0 0 -26 -32 -59 -60c-16 -14 -34 -27 -50 -34
c-9.95996 -4.35742 -17.9824 -6.77734 -24.5498 -6.77734c-3.98242 0 -7.42969 0.889648 -10.4492 2.77734c-8 5 -15 14 -20 28s-8 33 -9 55c-0.260742 5.60352 -0.385742 11.4102 -0.385742 17.3896c0 39.9102 5.55859 87.5166 13.3857 133.61c18 106 49 205 49 205v1v4
c0 8 -5 14 -13 14zM56 140h1c3 0 4 -1 7 -3c11 -6 20 -23 21 -24c-15 -37 -31 -66 -39 -74c-7 -7 -15 -11 -22 -13s-13 0 -16 2s-7 7 -7 19s3 30 14 54c13 23 24 32 32 36c3 2 7 3 9 3z" />
    <glyph glyph-name="e" unicode="e" horiz-adv-x="230" 
d="M66.9277 168c-13 0 -26.002 -4 -39.002 -13c-32 -21 -61 -55 -67 -90c-0.607422 -3.44336 -0.927734 -7.00977 -0.927734 -10.6084c0 -14.166 4.9668 -28.8223 16.9287 -38.3916c15 -12 38 -18 69 -18c54 0 104 29 141 56s62 54 62 54c2 2 4 7 4 10c0 8 -6 14 -14 14
c-4 0 -9 -1 -11 -4c0 0 -22 -26 -57 -51s-81 -50 -125 -50c-27 0 -43 5 -50 11s-9 12 -7 22c2 12 12 28 24 43c20.417 -4.08301 37.0908 -6.125 50.8154 -6.125c9.80371 0 18.1025 1.04199 25.1855 3.125c9 3 17 7 22 14s7 16 5 24c-4 15 -18 24 -34 28c-4 1 -8 2 -12 2h-3z
M68.9258 139c2 0 4 -1 6 -1c8 -2 12 -6 13 -7c-1 -1 -2 -2 -6 -3c-4.42676 -1.26465 -12.0537 -2.5293 -22.375 -2.5293c-5.99805 0 -12.9062 0.426758 -20.625 1.5293c2 1 3 3 5 4c9 6 18 8 25 8z" />
    <glyph glyph-name="f" unicode="f" horiz-adv-x="216" 
d="M121 487c-5 0 -11 -3.99902 -13 -8.99902c0 0 -30 -71 -60 -166c-26 -82 -54 -181 -62 -268c-3 -1 -20 -8 -20 -8c-5 -2 -9 -8 -9 -13c0 -4 3 -10 6 -12c4 -3 12 -10 21 -21c-0.666992 -29.667 -1 -55.7783 -1 -78.6299c0 -45.7041 1.33301 -78.3711 4 -100.371
c2 -18 5 -29 9 -38c2 -5 4 -9 9 -12s12 -4 17 -3c1 0 4 2 5 3c28 22 42 50 45 79c0.472656 4.56543 0.697266 9.15625 0.697266 13.752c0 24.5957 -6.42871 49.3418 -15.6973 71.248c-11 26 -26 50 -40 69c-1 2 -3 4 -4 6v4c0 7 1 14 1 21c19 8 32 13 68 27
c56 22 120 46 142 52c6 2 11 8 11 14c0 8 -7 14 -15 14h-4c-27 -7 -88 -31 -144 -53c-29 -12 -35 -15 -55 -23c9 80 34 172 58 248c30 93 59 163 59 163c1 2 1 4 1 6c0 8 -6 14 -14 14zM12 -48.999c7 -12 14 -24.001 19 -37.001
c8.54102 -20.498 13.4346 -41.7256 13.4346 -61.1904c0 -3.3252 -0.142578 -6.59863 -0.43457 -9.80859c-2 -19 -10 -35 -25 -51c-1 5 -2 12 -3 22c-2.46875 21.3945 -4.25977 55.6543 -4.25977 103.895c0 10.3838 0.0830078 21.415 0.259766 33.1055z" />
    <glyph glyph-name="g" unicode="g" horiz-adv-x="313" 
d="M137.524 179c-6 0 -12.999 -5 -13.999 -11l-5 -10c-3 2 -17 9 -37 12c-3.84863 0.524414 -7.97266 0.834961 -12.2705 0.834961c-20.2695 0 -44.4033 -6.9082 -61.7295 -30.835c-19 -26 -33 -57 -40 -83c-2.32422 -10.0693 -4.64844 -18.9395 -4.64844 -27.5391
c0 -2.50195 0.196289 -4.98145 0.647461 -7.46094c1 -5 3 -11 7 -16s12 -9 18 -9c9 -1 14 3 21 7s14 10 22 16c15 13 32 29 49 47c15 16 29 31 41 46c-1 -18 -3 -38 -5 -62c-35 -26 -67 -55 -95 -85c-39 -42 -68 -86 -81 -123
c-3.89355 -12.3311 -6.52441 -23.8193 -6.52441 -34.7393c0 -5.90527 0.769531 -11.6445 2.52441 -17.2607c5 -16 20 -28 39 -33c7.97363 -2.08008 15.707 -3.07812 23.1582 -3.07812c14.042 0 27.082 3.54492 38.8418 10.0781c18 10 33 25 45 44c24 38 39 89 49 142
c5 28 9 57 12 84c58 40 119 69 169 69c8 0 15 6 15 14s-7 14 -15 14c-53 0 -111 -24 -165 -59c4 53 4 92 4 92c0 8 -6 14 -14 14zM68.5254 143c3 0 6 -1 9 -1c12 -2 20 -6 24 -8c-11 -15 -26 -31 -41 -47c-16 -17 -33 -33 -47 -45c-7 -6 -13 -10 -18 -13c-1 -1 -2 -2 -3 -2
c0 4 -1 13 2 23c6 21 19 50 36 73c11 15 23 20 35 20h3zM111.525 11c-2 -18 -4.00195 -37.002 -8.00195 -55.002c-10 -51 -26 -100 -46 -132c-10 -16 -21 -27 -33 -34c-7.88184 -4.59766 -16.1953 -7.03809 -25.791 -7.03809c-5.0127 0 -10.375 0.666016 -16.208 2.03906
c-12 3 -17 8 -19 15c-0.632812 2.2168 -0.964844 4.93457 -0.964844 8.08984c0 6.81055 1.54883 15.6602 4.96582 25.9111c10 30 38 72 75 112c21 22 44 45 69 65z" />
    <glyph glyph-name="h" unicode="h" horiz-adv-x="370" 
d="M120.442 487h-1c-5 0 -11 -3 -13 -8c0 0 -33.332 -70.8936 -63 -164c-25.4004 -79.7148 -49.0742 -176.328 -49.0742 -262.761c0 -14.4043 0.657227 -28.5254 2.07422 -42.2383c0.726562 -7.0332 7 -13 14 -13c5 0 10 3 12 7c0 0 19 33 45 66c13 16 27 33 41 45
s28 18 37 18c4 0 5 -1 5 -1s0 -1 1 -4c0.292969 -1.75781 0.414062 -4.03027 0.414062 -6.74219c0 -6.5459 -0.707031 -15.6523 -1.41406 -26.2588c-0.5 -7.5 -1 -15.5 -1 -23.625s0.5 -16.375 2 -24.375c3 -16 12 -33 30 -43
c8.125 -4.7041 17.1641 -6.66504 26.5703 -6.66504c12.5898 0 25.8379 3.51367 38.4307 8.66504c22 9 45 23 66 38c42 30 76 64 76 64c2 2 4 7 4 10c0 8 -6 14 -14 14c-3 0 -8 -2 -10 -4c0 0 -33 -33 -73 -61c-20 -14 -42 -27 -60 -34
c-11.0674 -4.30371 -21 -6.33984 -28.6367 -6.33984c-4.78418 0 -8.66699 0.798828 -11.3633 2.33984c-10 6 -14 13 -16 24c-0.845703 4.64941 -1.15527 9.83398 -1.15527 15.3281c0 7.50586 0.577148 15.5889 1.1543 23.6719
c0.682617 9.5625 2.29883 19.125 2.29883 28.6875c0 4.4375 -0.347656 8.875 -1.29883 13.3125c-1 7 -5 14 -11 19s-15 8 -24 8c-20 0 -38 -10 -55 -24s-32 -32 -46 -49c-8 -11 -16 -20 -22 -30c1 80 24 172 49 249c30 91 61 160 61 160c1 2 1 4 1 6c0 8 -5 14 -13 14z" />
    <glyph glyph-name="i" unicode="i" horiz-adv-x="239" 
d="M25.1592 225c-6 0 -12 -4 -14 -10l-8 -24c0 -1 -1 -4 -1 -5c0 -8 7 -14 15 -14c6 0 11 4 13 10l8 24c0 1 1 4 1 5c0 8 -6 14 -14 14zM11.1592 132c-8 0 -15 -5.00098 -15 -13.001c-0.890625 -13.3555 -4.15918 -30.6748 -4.15918 -49.1348
c0 -2.27246 0.0498047 -4.5625 0.15918 -6.86426c1 -21 8 -45 31 -58c10.7393 -6.34668 22.6709 -8.87988 34.9795 -8.87988c12.9053 0 26.2246 2.78516 39.0205 6.87988c25 8 50 23 74 38c47 31 86 66 86 66c3 2 4 7 4 11c0 8 -6 14 -14 14c-3 0 -8 -2 -10 -4
c0 0 -36 -34 -81 -63c-22 -15 -47 -28 -68 -35c-10.0977 -3.36621 -19.502 -4.88281 -27.7676 -4.88281c-8.92383 0 -16.5215 1.76758 -22.2324 4.88281c-13 7 -16 18 -17 34c-0.109375 1.75391 -0.15918 3.54395 -0.15918 5.36426
c0 14.7891 3.26855 31.6084 4.15918 47.6357v1c0 8 -6 14 -14 14z" />
    <glyph glyph-name="j" unicode="j" horiz-adv-x="188" 
d="M21.3604 225c-6 0 -12 -4 -14 -10l-8 -24v-5c0 -8 6 -14 14 -14c6 0 12 4 14 10l7 24c0 1 1 4 1 5c0 8 -6 14 -14 14zM11.3604 132l-1.00195 0.000976562c-8 0 -14 -6 -14 -14v-1s0.395508 -10.667 0.395508 -28.2256c0 -21.9482 -0.617188 -54.6641 -3.39453 -90.7754
c-12 -12 -24 -23 -35 -35c-40 -42 -75 -86 -96 -121c-10 -18 -17 -33 -18 -48c-1 -7 0 -15 4 -22s11 -12 19 -14c9.42871 -2.57129 18.4902 -3.85742 27.1846 -3.85742c11.5918 0 22.5303 2.28613 32.8164 6.85742c18 8 32 22 43 39c22 34 35 79 43 126c3 20 5 39 7 58
c28 26 56 51 83 71c40 30 77 49 92 49c8 0 15 6 15 14s-7 14 -15 14c-31 0 -67 -23 -109 -54c-20 -15 -42 -33 -63 -52c1.28613 22.7139 1.65332 43.04 1.65332 58.8535c0 21.085 -0.65332 34.1465 -0.65332 34.1465c0 7 -6 13 -13 13zM-11.6416 -47.999l-3 -21
c-8 -45 -20 -88 -38 -115c-9 -14 -20 -24 -31 -29c-6.55957 -2.98145 -14.1855 -4.89648 -22.8779 -4.89648c-5.88477 0 -12.2588 0.87793 -19.1221 2.89648l-2 1v5c1 7 6 21 15 37c18 32 53 74 92 115z" />
    <glyph glyph-name="k" unicode="k" horiz-adv-x="298" 
d="M117.507 487c-5 0 -10.999 -3 -12.999 -8c0 0 -32 -71 -62 -164c-25.3223 -78.498 -48.5068 -173.383 -48.5068 -258.795c0 -15.7793 0.791016 -31.2354 2.50586 -46.2051c1 -7 7 -13 14 -13c4 0 10 3 12 7c0 0 7 10 10 15c13 -12 35 -22 64 -22c50 0 103 29 145 56
s74 54 74 54c3 2 5 7 5 11c0 8 -7 14 -15 14c-3 0 -7 -1 -9 -3c0 0 -30 -26 -70 -52s-92 -51 -130 -51c-25 0 -39 8 -48 17v1c1 1 2 3 3 4c27 10 60 27 89 46c20 13 38 27 50 41c6 7 10 14 13 22s4 19 -1 27c-7 11 -19 19 -31 19s-23 -5 -34 -12c-21 -14 -43 -38 -63 -63
c-15 -19 -29 -38 -41 -56c-4 -1 -7 -2 -10 -3c3 77 23 165 46 238c29 91 61 160 61 160c1 2 1 4 1 6c0 8 -6 14 -14 14zM171.508 175c3 0 3 0 6 -5l-1 -3c-1 -3 -3 -8 -8 -13c-9 -11 -25 -24 -43 -36c-12 -8 -26 -15 -39 -22c4 5 7 10 11 14c20 24 40 46 56 57
c8 5 15 8 18 8z" />
    <glyph glyph-name="l" unicode="l" horiz-adv-x="238" 
d="M121.087 487c-5 0 -9.99707 -4 -11.9971 -8c0 0 -31 -60 -60 -140c-25.9434 -71.5684 -51.0869 -159.943 -51.0869 -238.634c0 -9.27051 0.348633 -18.4072 1.08594 -27.3662c3 -38 18 -63 42 -73c8.5459 -3.56055 17.3457 -5.09277 26.3535 -5.09277
c16.2891 0 33.2598 5.00977 50.6455 12.0928c53 22 109 68 139 101c2 2 3 7 3 10c0 8 -6 14 -14 14c-4 0 -9 -2 -11 -5c-27 -30 -82 -74 -128 -93c-14.9854 -6.51562 -28.6973 -9.63477 -39.7529 -9.63477c-5.91309 0 -11.0664 0.892578 -15.248 2.63477
c-12 5 -21 16 -24 48c-0.589844 7.46875 -0.870117 15.1602 -0.870117 23.0332c0 72.2324 23.6221 159.73 48.8701 230.967c28 79 58 137 58 137c1 2 2 5 2 7c0 8 -7 14 -15 14z" />
    <glyph glyph-name="m" unicode="m" horiz-adv-x="422" 
d="M249 159c-4 0 -6.99609 -0.99707 -8.99609 -1.99707c-4 -2 -6 -4 -9 -6c-5 -4 -11 -10 -17 -17c-12 -14 -25 -31 -38 -49s-26 -35 -37 -47c-4 -4 -7 -8 -10 -10c0 2 -1 3 -1 6c-0.333008 3 -0.444336 6.33301 -0.444336 9.92578
c0 7.18555 0.444336 15.4082 0.444336 24.0752c0 13 0 27 -1 39s-5 26 -18 33c-9 5 -19 2 -25 -2s-11 -10 -16 -16c-10 -12 -21 -28 -31 -44s-20 -33 -28 -43l-3 -3v1c0 9 2 21 5 33c5 24 13 47 13 47c0 1 1 4 1 5c0 8 -7 14 -15 14c-6 0 -11 -5 -13 -10c0 0 -8 -24 -14 -50
c-3 -13 -5 -26 -5 -38c0 -6 0 -12 2 -18s4 -13 11 -17c5 -3 11 -3 15 -2s7 3 10 5c6 4 10 9 15 15c10 12 20 29 30 45s21 32 29 42c3 3 5 6 7 8c1 -2 2 -4 2 -8c0.333008 -3 0.444336 -6.44434 0.444336 -10.1855c0 -7.48145 -0.444336 -16.1484 -0.444336 -24.8154
s-0.444336 -17.334 -0.444336 -25.7041c0 -4.18555 0.111328 -8.29688 0.444336 -12.2969c1 -6 2 -11 4 -17s7 -12 14 -15c5 -2 11 -3 15 -2s7 3 10 5c6 4 12 10 18 17c12 13 26 31 39 49s27 36 37 48l1 1c-2 -10 -4 -22 -6 -35
c-1.06934 -8.55273 -2.13867 -17.3906 -2.13867 -26.209c0 -7.67969 0.810547 -15.3438 3.1377 -22.791c5 -16 18 -32 39 -36c4.11035 -0.783203 8.2207 -1.14453 12.3164 -1.14453c16.8271 0 33.4014 6.10156 48.6816 14.1436c19 10 37 24 53 39c32 29 55 60 55 60
c2 2 3 6 3 9c0 8 -6 14 -14 14c-4 0 -9 -2 -11 -5c0 0 -22 -30 -52 -57c-15 -14 -31 -27 -47 -35c-12.7998 -6.40039 -24.96 -9.60059 -34.9443 -9.60059c-2.49609 0 -4.85645 0.200195 -7.05664 0.600586c-12 2 -15 6 -18 15
c-1.35449 4.0625 -1.89355 8.94043 -1.89355 14.4492c0 6.69434 0.795898 14.3213 1.89355 22.5498c2 15 6 29 8 42c1 6 2 13 1 19c0 3 -1 6 -3 10s-5 7 -10 9c-1 1 -4 1 -5 1h-1z" />
    <glyph glyph-name="n" unicode="n" horiz-adv-x="273" 
d="M111 160c-2 0 -3 -1 -5 -1c-4 -1 -8 -3 -11 -5c-6 -4 -11 -10 -17 -17c-11 -14 -23 -33 -34 -51s-23 -37 -32 -49c-1 -2 -3 -3 -4 -5v1c0 9 2 22 4 34c5 24 11 47 11 47c0 1 1 3 1 4c0 8 -6 14 -14 14c-6 0 -12 -4 -14 -10c0 0 -7 -24 -12 -50c-2 -13 -5 -27 -5 -39
c0 -6 1 -12 3 -18s4 -12 11 -16c5 -3 12 -3 16 -2s7 4 10 6c6 5 11 10 16 17c10 14 22 33 33 51s23 36 32 48c3 4 6 7 8 9c1 -3 2 -7 2 -11c1 -12 0 -28 1 -44s2 -33 7 -47c3 -7 6 -15 12 -20s15 -9 24 -9c37 0 70 30 96 58s43 55 43 55c1 2 3 6 3 8c0 8 -7 14 -15 14
c-4 0 -10 -2 -12 -6c0 0 -16 -26 -40 -52s-55 -48 -75 -48c-3 0 -4 0 -5 1s-2 4 -4 8c-3 9 -4 24 -5 39s-1 32 -2 46c-1 7 -2 14 -4 20s-5 13 -13 17c-2 1 -5 3 -8 3h-2z" />
    <glyph glyph-name="o" unicode="o" horiz-adv-x="251" 
d="M71.2344 182c-6 0 -12 -1.99902 -18 -3.99902c-11 -5 -21 -14 -26 -25c-2.08301 -4.58301 -3.125 -9.6875 -3.125 -15.0234c0 -7.46973 2.04199 -15.3936 6.125 -22.9766c13 -25 31 -41 51 -51c-13 -19 -31 -35 -46 -39c-7 -2 -11 -2 -13 -1s-4 2 -5 4c-3 4 -5 16 -4 29
c1 26 10 57 10 57c0 1 1 3 1 4c0 8 -6 14 -14 14c-6 0 -12 -4 -14 -10c0 0 -11 -32 -12 -64c-0.151367 -2.42188 -0.234375 -4.84375 -0.234375 -7.25879c0 -13.5391 2.59668 -26.8604 10.2344 -38.7412c4 -7 11 -12 20 -15s19 -2 29 1c28 8 50 31 66 57
c7.33789 -1.22266 14.6758 -1.79102 21.9561 -1.79102c16.5322 0 32.7695 2.93164 48.043 7.79102c49 15 89 46 89 46c3 2 6 7 6 11c0 8 -6 14 -14 14c-3 0 -7 -1 -9 -3c0 0 -37 -27 -80 -40c-13.9336 -4.35449 -28.625 -7.19238 -42.7539 -7.19238
c-2.0957 0 -4.17871 0.0625 -6.24512 0.191406c4.94141 12.6279 8.07422 25.2559 8.07422 37.3877c0 9.96387 -2.11328 19.5928 -7.07422 28.6123c-13 23 -33 34 -52 34zM73.2344 154.001c8 0 17 -5 25 -20c1.54102 -2.69629 2.33984 -7.17285 2.33984 -12.7441
c0 -8.89258 -2.03613 -20.5742 -6.33984 -32.2559c-15 7 -28 18 -39 39c-3 6 -3 10 -1 14s5 8 10 10c2 1 5 2 8 2h1z" />
    <glyph glyph-name="p" unicode="p" horiz-adv-x="275" 
d="M143 174c-40 0 -71.998 -30.002 -96.998 -68.002c-11 -17 -20 -35 -29 -55l11 64v3c0 8 -6 14 -14 14c-7 0 -13 -5 -14 -12l-56 -324c-2 -13 -4 -22 -4 -22v-2c0 -8 6 -15 14 -15c7 0 13 5 14 12l4 22c6 33 19 101 41 170l12 36
c2.56543 -0.205078 5.13086 -0.304688 7.69238 -0.304688c22.3965 0 44.4619 7.63965 63.3066 19.3057c23 14 42 35 57 56c4 5 7 10 10 15c34.6504 10.3018 72.8086 17.0947 109.547 17.0947c2.49121 0 4.97656 -0.03125 7.45312 -0.0947266h1c8 0 14 6 14 14s-6 14 -14 14
c-2.98047 0.0849609 -5.96777 0.126953 -8.95996 0.126953c-32.1494 0 -64.8506 -4.80762 -95.041 -12.126c1 4 2 9 2 13c1 10 -1 20 -8 28s-17 13 -28 13zM143.002 144.998c5 0 6 -1 6 -2s1 -3 1 -8c0 -6 -3 -14 -7 -24c-15 -5 -30 -11 -44 -17s-27 -13 -39 -20
c3 6 7 12 10 17c23 34 48 54 73 54zM115.002 69.998c-10 -11 -22 -22 -34 -30s-24 -12 -36 -14c3 3 5 6 9 9c13 11 32 23 56 33c2 1 3 1 5 2z" />
    <glyph glyph-name="q" unicode="q" horiz-adv-x="293" 
d="M130.805 179c-5 0 -11.999 -3.99902 -13.999 -8.99902l-1 -3c0 -1 -1 -4 -4 -9c-4 2 -16 9 -34 12c-3.41602 0.488281 -7.04395 0.764648 -10.8145 0.764648c-19.4082 0 -42.6006 -7.31934 -60.1846 -30.7637c-19 -26 -33 -57 -40 -83
c-2.16211 -9.37012 -3.80469 -17.7012 -3.80469 -25.7422c0 -3.11523 0.246094 -6.18652 0.804688 -9.25781c1 -5 3 -11 7 -16s11 -9 17 -9c9 -1 15 3 22 7s14 10 21 16c15 13 31 29 47 47c2 2 3 5 5 7c-10 -31 -21 -65 -32 -100c-15 -49 -28 -98 -35 -136
c-2.46875 -15.6348 -4.26074 -29.915 -4.26074 -41.7266c0 -2.54297 0.0830078 -4.9707 0.259766 -7.27344c1 -7 2 -13 5 -19s10 -12 18 -13c1.12305 -0.102539 2.24609 -0.152344 3.36621 -0.152344c9.84863 0 19.4512 3.86621 26.6348 10.1514c8 7 15 15 21 26
c13 21 23 49 30 80c6.42188 27.8291 10.5527 57.6641 10.5527 86.4375c0 24.9902 -3.11621 49.1807 -10.5537 70.5625c3.6875 -0.246094 7.36816 -0.364258 11.0381 -0.364258c41.1123 0 80.8291 14.8389 112.961 31.3633c41 22 70 46 70 46c3 2 5 7 5 11c0 8 -6 14 -14 14
c-3 0 -7 -1 -9 -3c0 0 -27 -23 -65 -43c-29.6494 -15.248 -65.04 -28.3438 -99.4844 -28.3438c-6.21582 0 -12.4004 0.426758 -18.5156 1.34375c17 50 29 84 32 92c1 3 2 4 3 7v2c0 1 1 1 1 2v3c0 8 -6 14 -14 14zM62.8057 143.001c4 0 8 0 11 -1c11 -2 19 -6 22 -8
c-11 -15 -25 -32 -39 -48c-15 -17 -32 -33 -45 -44c-7 -6 -13 -10 -17 -13c-1 -1 -2 -2 -3 -2c0 4 0 13 3 23c6 21 18 50 35 73c11 15 22 20 33 20zM91.8057 9.00098c3.33984 -15.4443 4.93555 -32.9795 4.93555 -51.2969c0 -25.5645 -3.11035 -52.6514 -8.93652 -77.7021
c-7 -28 -16 -55 -26 -72c-5 -9 -11 -14 -15 -18c-2 -2 -5 -4 -6 -4c0 1 -1 3 -1 5c-0.176758 1.59375 -0.259766 3.37598 -0.259766 5.33008c0 9.07715 1.79199 21.8574 4.26074 36.6689c6 36 19 84 34 133c4 15 9 29 14 43z" />
    <glyph glyph-name="r" unicode="r" horiz-adv-x="245" 
d="M89.25 162c-6 0 -12.001 -1.99902 -16.001 -4.99902c-6 -4 -12 -10 -18 -17c-11 -13 -22 -31 -33 -49c-4 -7 -8 -13 -12 -20c6 22 13 42 13 42c1 1 1 4 1 5c0 8 -6 14 -14 14c-6 0 -11 -4 -13 -9c0 0 -10 -24 -16 -50c-3 -13 -6 -27 -6 -39c0 -6 -1 -12 1 -18
s5 -13 12 -17c2 -1 5 -2 7 -2c5 0 11 4 13 8c0 0 18 37 39 72c10 17 21 34 30 45c4 5 8 8 10 10c5 -4 8 -11 13 -23c6 -14 16 -33 38 -40h1c5.41211 -1.45703 10.9111 -2.09082 16.4424 -2.09082c21.041 0 42.5537 9.17285 61.5576 17.0908c24 10 42 22 42 22c4 2 7 8 7 12
c0 8 -6 14 -14 14c-2 0 -6 -1 -8 -2c0 0 -16 -10 -38 -20c-17.6338 -7.55762 -39.499 -13.7051 -52.5684 -13.7051c-2.49414 0 -4.66797 0.223633 -6.43066 0.704102c-12 4 -16 11 -21 23s-10 29 -28 39c-2 1 -5 3 -7 3h-2z" />
    <glyph glyph-name="s" unicode="s" horiz-adv-x="223" 
d="M55 185l-0.998047 0.00195312c-1 0 -3 -1 -4 -1c0 0 -14 -5 -27 -15c-11.1514 -8.57812 -23.0381 -23.7783 -23.0381 -43.707c0 -3.30469 0.327148 -6.73926 1.03809 -10.2949c5 -23 14 -46 22 -66c-6 -5 -12 -11 -17 -16c-22 -24 -36 -46 -38 -67c0 -5 0 -11 3 -16
s8 -10 13 -12c4.44043 -2.01855 8.88086 -2.89648 13.5186 -2.89648c6.85059 0 14.1318 1.91504 22.4795 4.89648c21 7 36 19 42 35c2.70898 7.22266 3.78711 14.6494 3.78711 22.0957c0 9.04883 -1.59277 18.127 -3.78711 26.9043c-1 5 -3 12 -5 17c42 33 102 63 171 63h1
c8 0 14 6 14 14s-6 14 -14 14h-1c-73 0 -136 -29 -182 -63c-7 18 -15 36 -18 52c-3 12 3 19 12 26s19 10 19 10c6 2 10 7 10 13c0 8 -6 15 -14 15zM33.002 20.002c0 -1 1 -2 1 -3c2.14355 -7.50293 3.13867 -13.8564 3.13867 -19.2158
c0 -4.64062 -0.746094 -8.53516 -2.13867 -11.7842c-3 -7 -8 -14 -24 -19c-8 -3 -12 -3 -14 -3c0 7 10 29 30 50z" />
    <glyph glyph-name="t" unicode="t" horiz-adv-x="238" 
d="M122 487c-5 0 -10.999 -4.00098 -12.999 -8.00098c0 0 -30 -60 -59 -140l-3 -9h-81c-8 0 -15 -6 -15 -14s7 -15 15 -15h71c-20.9668 -63.7734 -38.1172 -135.179 -38.1172 -200.215c0 -9.40918 0.359375 -18.6846 1.11816 -27.7842c3 -38 18 -63 42 -73
c8.5459 -3.56055 17.3457 -5.09277 26.3535 -5.09277c16.2891 0 33.2598 5.00977 50.6455 12.0928c53 22 108 68 138 101c2 2 4 7 4 10c0 8 -6 14 -14 14c-4 0 -9 -2 -11 -5c-27 -30 -82 -74 -128 -93c-14.9854 -6.51562 -28.6973 -9.63477 -39.7529 -9.63477
c-5.91309 0 -11.0664 0.892578 -15.248 2.63477c-12 5 -22 16 -25 48c-0.703125 7.9707 -1.03516 16.1748 -1.03516 24.5664c0 63.1953 18.8486 136.99 40.0352 201.434h119h1c8 0 14 7 14 15s-6 14 -14 14h-1h-109c28 78 58 136 58 136c1 2 1 5 1 7c0 8 -6 14 -14 14z" />
    <glyph glyph-name="u" unicode="u" horiz-adv-x="328" 
d="M149.076 147c-4 0 -10 -2.00098 -12 -6.00098c0 0 -51 -77 -112 -111c-7 -4 -11 -5 -12 -5c-1 2 -3 13 -2 27c3 27 13 62 13 62c0 1 1 3 1 4c0 8 -7 14 -15 14c-6 0 -11 -4 -13 -10c0 0 -12 -35 -15 -67c-0.640625 -5.12598 -1.07617 -10.1494 -1.07617 -15.0703
c0 -10.4385 1.95996 -20.415 8.07617 -29.9297c5 -7 13 -13 22 -13s18 3 28 8c34 19 63 47 85 72c-0.516602 -5.16699 -0.766602 -10.1338 -0.766602 -14.8828c0 -13.6338 2.05859 -25.4756 5.7666 -35.1172c5 -12 14 -21 25 -26
c6.73828 -3.0625 14.2275 -4.24902 21.7773 -4.24902c4.77441 0 9.57324 0.474609 14.2227 1.24902c49 10 108 57 156 110c2 2 4 7 4 10c0 8 -7 14 -15 14c-4 0 -8 -1 -10 -4c-46 -50 -107 -95 -141 -102c-9 -2 -15 -1 -19 1s-6 4 -9 11
c-2.06152 5.36133 -3.44336 13.6143 -3.44336 24.8281c0 15.9775 2.80469 37.9678 10.4434 66.1729v4c0 8 -6 14 -14 14z" />
    <glyph glyph-name="v" unicode="v" horiz-adv-x="354" 
d="M162 162c-6 0 -11.998 -4 -13.998 -10c0 0 -27 -92 -85 -124c-5 -3 -8 -3 -10 -3s-4 1 -6 3c-5 5 -10 17 -14 31c-7 27 -9 59 -9 59c0 8 -6 14 -14 14s-15 -6 -15 -14v-1s1 -34 10 -66c4 -16 10 -31 22 -43c6 -6 13 -11 22 -12s19 2 28 7c47 26 74 77 87 110
c19.2822 -23.8193 52.3945 -40.5625 94.2295 -40.5625c31.9316 0 68.9453 9.75488 108.77 33.5625c4 2 7 7 7 12c0 8 -6 14 -14 14c-2 0 -6 -1 -8 -2c-36.2627 -21.8281 -67.6914 -30.1455 -93.6318 -30.1455c-47.7402 0 -76.8896 28.1719 -83.3691 52.1455
c-2 6 -7 10 -13 10z" />
    <glyph glyph-name="w" unicode="w" horiz-adv-x="468" 
d="M264 171c-5 0 -12 -3.99805 -14 -8.99805c0 0 -14 -38 -32 -75c-9 -18 -20 -36 -29 -48c-5 -6 -9 -10 -12 -12c-2 -1 -3 -2 -3 -2c-2 1 -9 6 -15 18s-13 27 -17 43c-9 32 -13 64 -13 64c-1 7 -7 12 -14 12s-13 -5 -14 -12c0 0 -7 -36 -18 -70c-6 -17 -12 -33 -20 -43
c-4 -5 -8 -8 -11 -10s-4 -3 -7 -2c-2 0 -5 4 -9 12s-6 21 -8 33c-4 24 -4 48 -4 48c0 8 -6 14 -14 14s-15 -6 -15 -14c0 0 1 -26 5 -53c2 -13 5 -27 10 -39s13 -24 28 -28l1 -1c10 -2 19 1 27 5s15 11 20 18c11 14 18 33 24 51c1 4 3 7 4 11c0 -1 1 -2 1 -3
c5 -17 10 -35 18 -50s18 -27 35 -31c10 -2 18 0 25 5s12 11 18 18c11 15 22 34 32 53c9 18 17 38 23 52c5 -5 11 -11 17 -15c16 -11 36 -20 58 -26c15.8271 -3.86914 32.7676 -6.12988 49.9941 -6.12988c31.7539 0 64.4814 7.68066 93.0059 27.1289c3 2 6 8 6 12
c0 8 -6 14 -14 14c-3 0 -6 -1 -8 -2c-22.4717 -16.0518 -49.8906 -22.6221 -76.6982 -22.6221c-14.9453 0 -29.7002 2.04199 -43.3018 5.62109c-19 5 -36 12 -49 21s-20 20 -22 27c-2 6 -7 10 -13 10z" />
    <glyph glyph-name="x" unicode="x" horiz-adv-x="297" 
d="M155 163c-3 0 -7 -2 -9 -4c0 0 -31 -26 -65 -58c-9 -9 -19 -18 -28 -27c-19 25 -29 49 -29 49c-2 5 -8 9 -13 9c-8 0 -15 -6 -15 -14c0 -2 0 -4 1 -5c0 0 12 -28 34 -57c1 -1 2 -3 3 -4c0 -1 -2 -1 -2 -2c-14 -17 -25 -33 -30 -49c0 -1 -1 -3 -1 -4c0 -8 6 -14 14 -14
c6 0 12 4 14 10c2 8 12 22 25 38c21 -19 49 -34 84 -34c45 0 88 30 122 57s57 55 57 55c2 2 4 6 4 9c0 8 -7 14 -15 14c-4 0 -9 -2 -11 -5c0 0 -21 -25 -53 -51s-73 -50 -104 -50c-27 0 -48 12 -65 27c9 9 18 19 27 28c33 31 64 56 64 56c3 2 6 7 6 11c0 8 -7 15 -15 15z
" />
    <glyph glyph-name="y" unicode="y" horiz-adv-x="321" 
d="M145.872 179c-6 0 -13 -5 -14 -11c-1 -4 -6 -18 -14 -34s-18 -34 -29 -52s-24 -35 -36 -46s-21 -16 -26 -16c-9 1 -12 3 -14 7s-4 12 -4 22c0 20 8 46 14 65c0 1 1 3 1 4c0 8 -6 14 -14 14c-6 0 -12 -4 -14 -10c-6 -19 -15 -47 -16 -73c0 -13 2 -26 9 -37s20 -19 36 -20
c0.876953 -0.0458984 1.74512 -0.0683594 2.60449 -0.0683594c17.7773 0 32.041 9.71484 45.3955 23.0693c14 14 28 32 40 51c5 7 9 15 13 22c-2 -19 -5 -41 -8 -64c-26 -20 -50 -42 -73 -64c-43 -42 -78 -83 -96 -119
c-7.22461 -14.4502 -11.8721 -27.6113 -11.8721 -40.5186c0 -3.1709 0.280273 -6.32617 0.87207 -9.48145c3 -16 18 -29 36 -33c7.33398 -1.59473 14.4639 -2.37598 21.3584 -2.37598c14.7285 0 28.3809 3.56348 40.6416 10.375c18 10 33 26 46 45c25 38 42 89 53 141
c4 19 7 38 10 56c20 15 40 30 60 43c48 30 94 51 126 53c7 0 14 7 14 14c0 8 -6 14 -14 14h-2c-41 -3 -89 -25 -139 -57c-13 -8 -26 -17 -39 -26c8 65 9 116 9 116c0 8 -6 14 -14 14zM110.872 -19c-1 -8 -1.99902 -14 -3.99902 -22c-11 -50 -27 -100 -49 -133
c-11 -16 -22 -28 -35 -35c-9.02539 -4.85938 -18.0508 -7.79102 -28.415 -7.79102c-4.56445 0 -9.38867 0.568359 -14.5859 1.79102c-11.5928 2.10742 -14.1875 5.38086 -14.1875 13.4824c0 6.33008 3.0625 16.3926 9.1875 29.5176c15 30 48 72 90 112c14 14 30 27 46 41z
" />
    <glyph glyph-name="z" unicode="z" horiz-adv-x="339" 
d="M135 168c-12 0 -25 -2 -38 -5c-43 -9 -91 -29 -91 -29c-5 -2 -9 -8 -9 -13c0 -8 6 -15 14 -15c2 0 5 0 6 1c0 0 48 19 87 28c12 2.66699 23.1113 3.55566 30.667 3.55566c3.77734 0 6.66602 -0.222656 8.33301 -0.555664c-1 -2 -3 -6 -8 -13c-16 -23 -50 -49 -80 -68
s-55 -33 -55 -33c-4 -2 -8 -8 -8 -13c0 -8 6 -14 14 -14h113c52 0 110 28 156 55s80 55 80 55c3 2 6 7 6 11c0 8 -6 14 -14 14c-3 0 -7 -1 -9 -3c0 0 -34 -26 -78 -52s-100 -51 -141 -51h-59c4 2 7 4 11 7c31 20 67 47 88 76c8 11 13 20 13 31s-8 20 -17 24
c-7 3 -13 4 -20 4z" />
    <glyph glyph-name="braceleft" unicode="{" horiz-adv-x="349" 
d="M205 592l-3.99902 -0.00195312h-11c-15 -1 -30 -6 -41 -16c-21.2041 -18.5527 -28.3584 -42.5693 -28.3584 -66.5332c0 -3.16016 0.124023 -6.31934 0.357422 -9.46484c2 -27 12 -54 20 -82c6.94824 -24.3184 12.3877 -48.6367 12.3877 -73.6104
c0 -3.78027 -0.125 -7.57617 -0.387695 -11.3896c-2 -29 -12 -58 -39 -89c-22 -25 -60 -72 -60 -72c-2 -2 -4 -6 -4 -9s2 -8 4 -10c0 0 24 -29 53 -44c24.5 -12.25 31.3906 -26.0312 31.3906 -46.0332c0 -2.85742 -0.140625 -5.8418 -0.390625 -8.9668
c-2 -25 -17 -56 -34 -89s-35 -68 -45 -101c-4.13281 -13.6367 -6.72852 -27.6152 -6.72852 -41.2295c0 -19.3311 5.23242 -37.9277 18.7275 -53.7705c10 -12 25 -17 40 -19c8.78711 -1.17188 17.917 -1.65723 26.9883 -1.65723c6.41406 0 12.7988 0.242188 19.0117 0.65625
c30 2 55 9 55 9c6 1 11 8 11 14c0 8 -6 14 -14 14c-1 0 -3 -1 -4 -1c0 0 -24 -6 -51 -8c-5.38477 -0.414062 -11.1123 -0.65625 -16.7568 -0.65625c-7.98242 0 -15.7988 0.485352 -22.2422 1.65723c-11 2 -19 6 -23 10c-8.13379 9.21875 -11.5625 19.6133 -11.5625 31.8223
c0 10.3057 2.44336 21.9043 6.56348 35.1787c9 29 26 63 43 97s33 68 36 100c0.275391 2.94043 0.416016 5.88965 0.416016 8.83496c0 29.1035 -13.7246 57.8193 -46.416 74.165c-15 8 -28 20 -36 28c10 12 34 42 51 62c31 35 45 72 47 106
c0.210938 3.58984 0.310547 7.15723 0.310547 10.7012c0 30.0225 -7.15527 58.3613 -14.3105 84.2998c-8 29 -17 55 -19 76c-0.305664 3.21289 -0.47168 6.30859 -0.47168 9.30566c0 16.5898 5.07227 30.1416 19.4707 43.6934c4 4 13 7 25 8
c4.9707 0.414062 10.1133 0.65625 15.3555 0.65625c7.41406 0 15.0293 -0.485352 22.6445 -1.65723c26 -3 49 -10 49 -10c1 0 3 -1 4 -1c8 0 15 7 15 15c0 6 -5 11 -11 13c0 0 -24 7 -53 11c-9 1 -20 2 -30 2z" />
    <glyph glyph-name="bar" unicode="|" horiz-adv-x="205" 
d="M141 580c-7 0 -13 -6 -14 -13c0 0 -65 -627 -77 -788v-1c0 -8 6 -14 14 -14c7 0 14 6 14 13c12 159 77 787 77 787v2c0 8 -6 14 -14 14z" />
    <glyph glyph-name="braceright" unicode="}" horiz-adv-x="348" 
d="M214 592c-8 0 -15.002 0.000976562 -22.002 -0.999023c-30 -2 -56 -9 -56 -9c-6 -1 -11 -7 -11 -13c0 -8 6 -15 14 -15c1 0 3 1 4 1c0 0 24 6 51 8c5.38477 0.414062 11.1123 0.65625 16.7568 0.65625c7.98242 0 15.7988 -0.485352 22.2422 -1.65723c11 -2 19 -6 23 -10
c8.45215 -9.58008 12.1416 -20.4297 12.1416 -33.2656c0 -9.94238 -2.21387 -21.0762 -6.14258 -33.7344c-9 -29 -27 -63 -44 -97s-33 -67 -36 -99c-0.275391 -2.94043 -0.416016 -5.89844 -0.416016 -8.85938c0 -29.2549 13.7246 -58.7949 46.416 -75.1406
c15 -8 28 -20 36 -28c-10 -12 -34 -42 -51 -62c-31 -35 -45 -72 -47 -106c-0.210938 -3.58984 -0.310547 -7.15723 -0.310547 -10.7012c0 -30.0225 7.15527 -58.3613 14.3105 -84.2998c8 -29 17 -55 19 -76c0.305664 -3.21289 0.47168 -6.30859 0.47168 -9.30566
c0 -16.5898 -5.07227 -30.1416 -19.4707 -43.6934c-4 -4 -12 -7 -24 -8c-4.9707 -0.414062 -10.2842 -0.65625 -15.7275 -0.65625c-7.69824 0 -15.6562 0.485352 -23.2715 1.65723c-26 3 -49 10 -49 10c-1 0 -3 1 -4 1c-8 0 -14 -6 -14 -14c0 -6 4 -12 10 -14
c0 0 25 -7 54 -11c10.249 -1.46387 21.5693 -2.3916 32.7852 -2.3916c4.10547 0 8.19629 0.124023 12.2158 0.391602c15 1 30 6 41 16c21.2041 18.5527 28.3574 42.5693 28.3574 66.5332c0 3.16016 -0.124023 6.31934 -0.357422 9.46484c-2 27 -12 54 -20 82
c-7.0625 24.7178 -13.3457 49.4355 -13.3457 74.8418c0 3.37305 0.110352 6.75879 0.344727 10.1582c2 29 12 58 39 89c22 25 61 73 61 73c2 2 3 6 3 9s-2 7 -4 9c0 0 -24 29 -53 44c-24.1338 12.0674 -30.4375 25.6201 -30.4375 45.1416
c0 3.12695 0.162109 6.40723 0.438477 9.85938c2 25 16 56 33 89s35 68 45 101c4.13281 13.6367 6.72852 27.6152 6.72852 41.2295c0 19.3311 -5.23242 37.9277 -18.7275 53.7705c-10 12 -25 18 -40 20c-8 1 -15 1 -23 1z" />
    <glyph glyph-name="asciitilde" unicode="~" horiz-adv-x="449" 
d="M315 238h-12.0029c-32 -3 -63 -17 -92 -29s-57 -24 -80 -27c-4.34277 -0.566406 -8.47168 -0.882812 -12.4199 -0.882812c-16.9639 0 -30.6006 5.84863 -43.5791 22.8838c-2 3 -7 6 -11 6c-8 0 -14 -6 -14 -14c0 -3 1 -7 3 -9
c19.1514 -24.374 44.3643 -33.5928 69.7031 -33.5928c3.76953 0 7.54199 0.204102 11.2979 0.592773c29 3 59 17 88 29s58 23 84 26c4.44727 0.512695 8.77734 0.791992 13.0059 0.791992c20.4912 0 38.5869 -6.55566 55.9951 -24.793c2 -2 7 -4 10 -4c8 0 14 6 14 14
c0 3 -2 8 -4 10c-24 24 -52 33 -80 33z" />
    <glyph glyph-name="cent" unicode="&#xa2;" horiz-adv-x="342" 
d="M201.562 487h-1c-8 0 -14 -6 -14 -14c0 0 -3 -63 -10 -154c-13 -4 -26 -11 -38 -19c-41 -28 -71 -75 -83 -122c-3.58398 -14.0361 -5.5625 -28.3398 -5.5625 -42.2451c0 -32.6562 10.9111 -63.1162 37.5625 -82.7539c16 -12 37 -19 63 -21c-6 -53 -12 -105 -20 -152
c0 -1 -1 -1 -1 -2c0 -8 7 -15 15 -15c7 0 13 6 14 13c8 49 15 102 21 156c29 2 63 11 103 26c5 2 10 8 10 14c0 8 -7 14 -15 14c-1 0 -4 0 -5 -1c-36 -14 -65 -21 -90 -24c9 83 16 166 21 235c2.88672 0.275391 5.79199 0.417969 8.7168 0.417969
c18.3506 0 37.4453 -5.61719 57.2842 -19.418c2 -1 7 -2 9 -2c8 0 14 6 14 14c0 4 -3 10 -7 12c-24.3877 15.9453 -48.7754 23.0928 -72.3379 23.0928c-1.55762 0 -3.1123 -0.03125 -4.66309 -0.09375h-3c6 88 9 148 9 148v1c0 8 -5 14 -13 14zM174.562 288
c-5 -68 -12 -149.001 -21 -228.001c-22 1 -38 8 -49 16c-18.1699 13.2783 -26.5723 34.8584 -26.5723 60.3047c0 10.9658 1.56055 22.6494 4.57227 34.6963c10 40 38 83 72 106c6 4 13 8 20 11z" />
    <glyph glyph-name="sterling" unicode="&#xa3;" horiz-adv-x="366" 
d="M277 487c-1 0 -2 -1 -3 -1c-84 -24 -132 -67 -156 -121c-15.1582 -34.1055 -20.3438 -71.4023 -20.3438 -109.622c0 -22.2949 1.76465 -44.9043 4.34375 -67.3779c1 -6 1 -12 2 -18h-40c-8 0 -14 -6 -14 -14s6 -14 14 -14h44c7 -45 15 -89 19 -129
c1.20996 -12.8252 1.89258 -25.124 1.89258 -36.8105c0 -36.6064 -6.7002 -67.207 -24.8926 -89.1895c-2 -2 -3 -6 -3 -9c0 -8 6 -14 14 -14h186h1c8 0 14 6 14 14s-6 14 -14 14h-1h-160c11.8896 24.4785 15.9531 52.8711 15.9531 83.124
c0 13.0029 -0.750977 26.3496 -1.95312 39.877c-4 40 -11 84 -18 127h131c8 0 15 6 15 14s-7 14 -15 14h-135c-1 7 -2 15 -3 22c-2.46582 20.7803 -3.93848 41.1885 -3.93848 60.9189c0 36.2881 4.98242 70.2822 17.9385 100.08c20 46 60 83 138 106c6 2 10 8 10 14
c0 8 -6 14 -14 14h-1z" />
    <glyph glyph-name="Agrave" unicode="&#xc0;" horiz-adv-x="611" 
d="M435 680h-1c-8 0 -14 -6 -14 -14c0 -3 2 -8 4 -10l41 -44c2 -2 7 -4 10 -4c8 0 14 6 14 14c0 3 -1 8 -3 10l-41 43c-2 2 -7 5 -10 5zM480 569c-23 0 -44.998 -12.999 -67.998 -32.999s-48 -48 -73 -81c-51 -67 -105 -155 -154 -247c-28 -52 -54 -105 -77 -156
c-34 -6 -67 -14 -98 -24c-6 -2 -10 -7 -10 -13c0 -8 6 -15 14 -15c1 0 4 1 5 1c24 7 48 14 74 19c-12 -26 -22 -52 -31 -76c-15 -39 -27 -73 -34 -102c-4.6084 -19.0908 -7.4834 -34.7148 -7.4834 -48.2988c0 -7.05078 0.774414 -13.5518 2.48242 -19.7021
c2 -6 7 -10 13 -10c8 0 15 6 15 14c0 1 -1 3 -1 4c-0.582031 1.74609 -0.910156 4.67773 -0.910156 8.62207c0 9.61035 1.94727 25.2344 6.91016 44.3779c7 27 18 61 33 99c11 29 24 59 39 92c97.4717 16.5908 199.722 20.7568 275.698 20.7568
c33.9287 0 62.6182 -0.831055 83.3018 -1.75684c-21 -141 -45 -256 -45 -256v-3c0 -8 6 -15 14 -15c7 0 13 6 14 12c0 0 24 118 45 261c5 0 8 -1 8 -1h1c8 0 15 6 15 14c0 7 -7 15 -14 15h-6c4 32 9 64 13 97c8.86816 78.2051 15.1367 155.76 15.1367 221.659
c0 15.8379 -0.362305 31.002 -1.1377 45.3408c-2 37 -7 67 -16 91c-5 12 -11 22 -19 30s-19 12 -31 12zM480.002 541.001c5 0 7.99902 -1.00098 11.999 -5.00098s8 -10 12 -19c7 -18 12 -48 14 -83c0.775391 -13.5635 1.1377 -28.1035 1.1377 -43.4297
c0 -63.7725 -6.26855 -141.171 -15.1367 -218.569c-4 -33 -8 -66 -13 -98h-10c-17 1 -38 2 -62 2c-6.9082 0.0947266 -14.085 0.144531 -21.502 0.144531c-70.9648 0 -163.961 -4.56348 -254.498 -18.1445h-1c21 45 44 91 69 137c49 91 102 178 151 243c25 32 48 59 69 77
s39 26 49 26z" />
    <glyph glyph-name="Aacute" unicode="&#xc1;" horiz-adv-x="611" 
d="M545 683h-1c-4 0 -9 -3 -11 -6l-35 -44c-2 -2 -3 -6 -3 -9c0 -8 6 -14 14 -14c4 0 10 2 12 5l34 45c2 2 3 6 3 9c0 8 -5 14 -13 14zM480 569c-23 0 -44.998 -12.999 -67.998 -32.999s-48 -48 -73 -81c-51 -67 -105 -155 -154 -247c-28 -52 -54 -105 -77 -156
c-34 -6 -67 -14 -98 -24c-6 -2 -10 -7 -10 -13c0 -8 6 -15 14 -15c1 0 4 1 5 1c24 7 48 14 74 19c-12 -26 -22 -52 -31 -76c-15 -39 -27 -73 -34 -102c-4.6084 -19.0908 -7.4834 -34.7148 -7.4834 -48.2988c0 -7.05078 0.774414 -13.5518 2.48242 -19.7021
c2 -6 7 -10 13 -10c8 0 15 6 15 14c0 1 -1 3 -1 4c-0.582031 1.74609 -0.910156 4.67773 -0.910156 8.62207c0 9.61035 1.94727 25.2344 6.91016 44.3779c7 27 18 61 33 99c11 29 24 59 39 92c97.4717 16.5908 199.722 20.7568 275.698 20.7568
c33.9287 0 62.6182 -0.831055 83.3018 -1.75684c-21 -141 -45 -256 -45 -256v-3c0 -8 6 -15 14 -15c7 0 13 6 14 12c0 0 24 118 45 261c5 0 8 -1 8 -1h1c8 0 15 6 15 14c0 7 -7 15 -14 15h-6c4 32 9 64 13 97c8.86816 78.2051 15.1367 155.76 15.1367 221.659
c0 15.8379 -0.362305 31.002 -1.1377 45.3408c-2 37 -7 67 -16 91c-5 12 -11 22 -19 30s-19 12 -31 12zM480.002 541.001c5 0 7.99902 -1.00098 11.999 -5.00098s8 -10 12 -19c7 -18 12 -48 14 -83c0.775391 -13.5635 1.1377 -28.1035 1.1377 -43.4297
c0 -63.7725 -6.26855 -141.171 -15.1367 -218.569c-4 -33 -8 -66 -13 -98h-10c-17 1 -38 2 -62 2c-6.9082 0.0947266 -14.085 0.144531 -21.502 0.144531c-70.9648 0 -163.961 -4.56348 -254.498 -18.1445h-1c21 45 44 91 69 137c49 91 102 178 151 243c25 32 48 59 69 77
s39 26 49 26z" />
    <glyph glyph-name="Acircumflex" unicode="&#xc2;" horiz-adv-x="611" 
d="M492 687c-4 0 -9 -2 -11 -5c-18 -20 -42 -50 -42 -50c-2 -2 -3 -6 -3 -9c0 -8 6 -14 14 -14c4 0 9 2 11 5c0 0 17 19 30 35c14 -20 30 -39 30 -39c2 -3 7 -5 11 -5c8 0 14 6 14 14c0 3 -2 8 -4 10c0 0 -26 31 -38 51c-2 4 -8 7 -12 7zM480 569
c-23 0 -44.998 -12.999 -67.998 -32.999s-48 -48 -73 -81c-51 -67 -105 -155 -154 -247c-28 -52 -54 -105 -77 -156c-34 -6 -67 -14 -98 -24c-6 -2 -10 -7 -10 -13c0 -8 6 -15 14 -15c1 0 4 1 5 1c24 7 48 14 74 19c-12 -26 -22 -52 -31 -76c-15 -39 -27 -73 -34 -102
c-4.6084 -19.0908 -7.4834 -34.7148 -7.4834 -48.2988c0 -7.05078 0.774414 -13.5518 2.48242 -19.7021c2 -6 7 -10 13 -10c8 0 15 6 15 14c0 1 -1 3 -1 4c-0.582031 1.74609 -0.910156 4.67773 -0.910156 8.62207c0 9.61035 1.94727 25.2344 6.91016 44.3779
c7 27 18 61 33 99c11 29 24 59 39 92c97.4717 16.5908 199.722 20.7568 275.698 20.7568c33.9287 0 62.6182 -0.831055 83.3018 -1.75684c-21 -141 -45 -256 -45 -256v-3c0 -8 6 -15 14 -15c7 0 13 6 14 12c0 0 24 118 45 261c5 0 8 -1 8 -1h1c8 0 15 6 15 14
c0 7 -7 15 -14 15h-6c4 32 9 64 13 97c8.86816 78.2051 15.1367 155.76 15.1367 221.659c0 15.8379 -0.362305 31.002 -1.1377 45.3408c-2 37 -7 67 -16 91c-5 12 -11 22 -19 30s-19 12 -31 12zM480.002 541.001c5 0 7.99902 -1.00098 11.999 -5.00098s8 -10 12 -19
c7 -18 12 -48 14 -83c0.775391 -13.5635 1.1377 -28.1035 1.1377 -43.4297c0 -63.7725 -6.26855 -141.171 -15.1367 -218.569c-4 -33 -8 -66 -13 -98h-10c-17 1 -38 2 -62 2c-6.9082 0.0947266 -14.085 0.144531 -21.502 0.144531
c-70.9648 0 -163.961 -4.56348 -254.498 -18.1445h-1c21 45 44 91 69 137c49 91 102 178 151 243c25 32 48 59 69 77s39 26 49 26z" />
    <glyph glyph-name="Atilde" unicode="&#xc3;" horiz-adv-x="611" 
d="M508 669c-3 0 -5.99902 0 -8.99902 -1c-15 -4 -24 -14 -31 -22s-13 -12 -16 -12s-8 0 -22 15c-2 3 -7 5 -11 5c-8 0 -14 -6 -14 -14c0 -3 2 -8 4 -10c15.2998 -16.2002 28.9795 -24.2998 42.4971 -24.2998c1.50195 0 3.00195 0.0996094 4.50195 0.299805
c15 2 25 12 32 20s14 13 18 14s10 1 24 -11c2 -2 7 -4 10 -4c8 0 14 6 14 14c0 4 -2 9 -5 11c-13 12 -26 18 -38 19h-3zM480.001 569c-23 0 -44.998 -12.999 -67.998 -32.999s-48 -48 -73 -81c-51 -67 -105 -155 -154 -247c-28 -52 -54 -105 -77 -156
c-34 -6 -67 -14 -98 -24c-6 -2 -10 -7 -10 -13c0 -8 6 -15 14 -15c1 0 4 1 5 1c24 7 48 14 74 19c-12 -26 -22 -52 -31 -76c-15 -39 -27 -73 -34 -102c-4.6084 -19.0908 -7.4834 -34.7148 -7.4834 -48.2988c0 -7.05078 0.774414 -13.5518 2.48242 -19.7021
c2 -6 7 -10 13 -10c8 0 15 6 15 14c0 1 -1 3 -1 4c-0.582031 1.74609 -0.910156 4.67773 -0.910156 8.62207c0 9.61035 1.94727 25.2344 6.91016 44.3779c7 27 18 61 33 99c11 29 24 59 39 92c97.4717 16.5908 199.722 20.7568 275.698 20.7568
c33.9287 0 62.6182 -0.831055 83.3018 -1.75684c-21 -141 -45 -256 -45 -256v-3c0 -8 6 -15 14 -15c7 0 13 6 14 12c0 0 24 118 45 261c5 0 8 -1 8 -1h1c8 0 15 6 15 14c0 7 -7 15 -14 15h-6c4 32 9 64 13 97c8.86816 78.2051 15.1367 155.76 15.1367 221.659
c0 15.8379 -0.362305 31.002 -1.1377 45.3408c-2 37 -7 67 -16 91c-5 12 -11 22 -19 30s-19 12 -31 12zM480.003 541.001c5 0 7.99902 -1.00098 11.999 -5.00098s8 -10 12 -19c7 -18 12 -48 14 -83c0.775391 -13.5635 1.1377 -28.1035 1.1377 -43.4297
c0 -63.7725 -6.26855 -141.171 -15.1367 -218.569c-4 -33 -8 -66 -13 -98h-10c-17 1 -38 2 -62 2c-6.9082 0.0947266 -14.085 0.144531 -21.502 0.144531c-70.9648 0 -163.961 -4.56348 -254.498 -18.1445h-1c21 45 44 91 69 137c49 91 102 178 151 243c25 32 48 59 69 77
s39 26 49 26z" />
    <glyph glyph-name="Adieresis" unicode="&#xc4;" horiz-adv-x="611" 
d="M479 665c-6 0 -12 -4 -14 -10l-8 -24c0 -1 -1 -4 -1 -5c0 -8 7 -14 15 -14c6 0 11 4 13 10l8 24c0 1 1 4 1 5c0 8 -6 14 -14 14zM528 665c-6 0 -12 -4 -14 -10l-8 -24c0 -1 -1 -4 -1 -5c0 -8 7 -14 15 -14c6 0 11 4 13 10l8 24c0 1 1 4 1 5c0 8 -6 14 -14 14zM480 569
c-23 0 -44.998 -12.999 -67.998 -32.999s-48 -48 -73 -81c-51 -67 -105 -155 -154 -247c-28 -52 -54 -105 -77 -156c-34 -6 -67 -14 -98 -24c-6 -2 -10 -7 -10 -13c0 -8 6 -15 14 -15c1 0 4 1 5 1c24 7 48 14 74 19c-12 -26 -22 -52 -31 -76c-15 -39 -27 -73 -34 -102
c-4.6084 -19.0908 -7.4834 -34.7148 -7.4834 -48.2988c0 -7.05078 0.774414 -13.5518 2.48242 -19.7021c2 -6 7 -10 13 -10c8 0 15 6 15 14c0 1 -1 3 -1 4c-0.582031 1.74609 -0.910156 4.67773 -0.910156 8.62207c0 9.61035 1.94727 25.2344 6.91016 44.3779
c7 27 18 61 33 99c11 29 24 59 39 92c97.4717 16.5908 199.722 20.7568 275.698 20.7568c33.9287 0 62.6182 -0.831055 83.3018 -1.75684c-21 -141 -45 -256 -45 -256v-3c0 -8 6 -15 14 -15c7 0 13 6 14 12c0 0 24 118 45 261c5 0 8 -1 8 -1h1c8 0 15 6 15 14
c0 7 -7 15 -14 15h-6c4 32 9 64 13 97c8.86816 78.2051 15.1367 155.76 15.1367 221.659c0 15.8379 -0.362305 31.002 -1.1377 45.3408c-2 37 -7 67 -16 91c-5 12 -11 22 -19 30s-19 12 -31 12zM480.002 541.001c5 0 7.99902 -1.00098 11.999 -5.00098s8 -10 12 -19
c7 -18 12 -48 14 -83c0.775391 -13.5635 1.1377 -28.1035 1.1377 -43.4297c0 -63.7725 -6.26855 -141.171 -15.1367 -218.569c-4 -33 -8 -66 -13 -98h-10c-17 1 -38 2 -62 2c-6.9082 0.0947266 -14.085 0.144531 -21.502 0.144531
c-70.9648 0 -163.961 -4.56348 -254.498 -18.1445h-1c21 45 44 91 69 137c49 91 102 178 151 243c25 32 48 59 69 77s39 26 49 26z" />
    <glyph glyph-name="Aring" unicode="&#xc5;" horiz-adv-x="611" 
d="M510 665c-25 0 -44 -17.998 -52 -36.998c-2.19434 -5.48633 -3.78711 -10.9727 -3.78711 -16.624c0 -4.65039 1.07812 -9.41211 3.78711 -14.3779c6 -11 18 -17 32 -17c25 0 42 20 47 39c3 9 3 19 -1 28s-14 18 -26 18zM509 636.002c0 -1 1 -5 0 -10
c-3 -9 -9 -17 -19 -17c-7 0 -7 1 -7 1s-1 3 1 7c4 9 15 19 25 19zM480 569.002c-23 0 -44.998 -12.999 -67.998 -32.999s-48 -48 -73 -81c-51 -67 -105 -155 -154 -247c-28 -52 -54 -105 -77 -156c-34 -6 -67 -14 -98 -24c-6 -2 -10 -7 -10 -13c0 -8 6 -15 14 -15
c1 0 4 1 5 1c24 7 48 14 74 19c-12 -26 -22 -52 -31 -76c-15 -39 -27 -73 -34 -102c-4.6084 -19.0908 -7.4834 -34.7148 -7.4834 -48.2988c0 -7.05078 0.774414 -13.5518 2.48242 -19.7021c2 -6 7 -10 13 -10c8 0 15 6 15 14c0 1 -1 3 -1 4
c-0.582031 1.74609 -0.910156 4.67773 -0.910156 8.62207c0 9.61035 1.94727 25.2344 6.91016 44.3779c7 27 18 61 33 99c11 29 24 59 39 92c97.4717 16.5908 199.722 20.7568 275.698 20.7568c33.9287 0 62.6182 -0.831055 83.3018 -1.75684c-21 -141 -45 -256 -45 -256v-3
c0 -8 6 -15 14 -15c7 0 13 6 14 12c0 0 24 118 45 261c5 0 8 -1 8 -1h1c8 0 15 6 15 14c0 7 -7 15 -14 15h-6c4 32 9 64 13 97c8.86816 78.2051 15.1367 155.76 15.1367 221.659c0 15.8379 -0.362305 31.002 -1.1377 45.3408c-2 37 -7 67 -16 91c-5 12 -11 22 -19 30
s-19 12 -31 12zM480.002 541.003c5 0 7.99902 -1.00098 11.999 -5.00098s8 -10 12 -19c7 -18 12 -48 14 -83c0.775391 -13.5635 1.1377 -28.1035 1.1377 -43.4297c0 -63.7725 -6.26855 -141.171 -15.1367 -218.569c-4 -33 -8 -66 -13 -98h-10c-17 1 -38 2 -62 2
c-6.9082 0.0947266 -14.085 0.144531 -21.502 0.144531c-70.9648 0 -163.961 -4.56348 -254.498 -18.1445h-1c21 45 44 91 69 137c49 91 102 178 151 243c25 32 48 59 69 77s39 26 49 26z" />
    <glyph glyph-name="Ccedilla" unicode="&#xc7;" horiz-adv-x="735" 
d="M477.641 570c-47 0 -106.997 -33.998 -192.997 -101.998h-1c-136 -115 -220 -239 -259 -351c-16.5547 -47.542 -24.6406 -93.1016 -24.6406 -134.69c0 -56.3877 14.8643 -105.477 43.6406 -142.31c26.6504 -34.1133 65.5176 -56.2939 114.178 -63.8164
c-8.26074 -36.2432 -37.8184 -40.1846 -37.8184 -40.1846c-7 -1 -12 -7 -12 -14c0 -8 7 -14 15 -14h3s48 11 60 63c0 0.830078 0.689453 1.66016 0.922852 2.49023c3.07129 -0.105469 6.1748 -0.158203 9.30957 -0.158203c33.4072 0 70.4072 6 110.407 18.667
c120 38 272 136 447 316c2 2 4 7 4 10c0 8 -7 14 -15 14c-3 0 -8 -2 -10 -4c-173 -178 -321 -273 -434 -309c-38.0518 -12.123 -72.1348 -17.6689 -102.211 -17.6689c-59.2393 0 -102.934 21.5156 -130.791 56.6689c-23.9355 30.2041 -36.8281 72.4248 -36.8281 122.775
c0 38.001 7.34375 80.6328 22.8281 126.225c36 106 117 227 250 339c84 66 145 96 176 96c15 0 23 -5 29 -17c4.9375 -9.87402 8.52051 -27.1973 8.52051 -49.7402c0 -4.85254 -0.166016 -9.94629 -0.520508 -15.2598v-1c0 -8 6 -14 14 -14c7 0 15 6 15 13
c0.378906 6.24512 0.578125 12.2754 0.578125 18.084c0 24.8848 -3.66016 45.7012 -12.5781 61.916c-11 20 -31 32 -54 32z" />
    <glyph glyph-name="Egrave" unicode="&#xc8;" horiz-adv-x="617" 
d="M470 680h-1c-8 0 -14 -6 -14 -14c0 -3 2 -8 4 -10l41 -44c2 -2 7 -4 10 -4c8 0 14 6 14 14c0 3 -1 8 -3 10l-41 43c-2 2 -7 5 -10 5zM536.039 560c-22 0 -45.0039 -3.99707 -70.0039 -9.99707c-42 -11 -88 -29 -125 -53s-67 -54 -77 -90
c-3.23633 -10.7881 -4.72656 -21.2119 -4.72656 -31.1748c0 -26.9766 10.9307 -50.5674 27.7275 -68.8252c23 -25 57 -43 91 -56c8 -3 15 -6 23 -8c-80 -12 -160 -42 -227 -82c-99.6826 -59.2178 -174.039 -142.787 -174.039 -228.597
c0 -54.4932 30.1543 -94.8887 74.0391 -120.403c41.2148 -23.9619 95.291 -35.0625 153.423 -35.0625c2.51855 0 5.04492 0.0205078 7.57812 0.0625c121 2 260 50 333 146c2 2 3 6 3 9c0 8 -7 14 -15 14c-4 0 -9 -3 -11 -6c-65 -86 -196 -134 -310 -135
c-2.20508 -0.0390625 -4.40332 -0.0585938 -6.59277 -0.0585938c-54.4082 0 -103.838 11.8701 -139.406 32.0576c-37.7578 21.4297 -60.0449 51.8428 -60.0449 96.1523c0 69.21 64.4834 146.701 159.045 202.847c84.377 50.0986 191.156 83.9746 289.784 83.9746
c13.5869 0 27.0186 -0.642578 40.2158 -1.97461h2c8 0 14 6 14 14c0 7 -6 13 -13 14c0 0 -70 7 -133 31c-32 12 -62 29 -80 49c-12.9424 14.3809 -20.7148 29.7959 -20.7148 48.8477c0 7.44434 1.18652 15.4434 3.71484 24.1533c7 25 32 52 66 74s76 40 115 50
c22.3799 5.73828 44.4307 8.5127 62.9395 8.5127c13.7451 0 25.5371 -1.53027 34.0605 -4.51367c10 -3 15 -8 18 -14s3 -14 -2 -28c0 -1 -1 -4 -1 -5c0 -8 6 -15 14 -15c6 0 12 5 14 10c3.74902 10.1748 5.77734 19.7764 5.77734 28.6504
c0 7.69629 -1.52539 14.8457 -4.77637 21.3486c-7 14 -20 24 -35 29c-11 4 -24 6 -38 6h-4z" />
    <glyph glyph-name="Eacute" unicode="&#xc9;" horiz-adv-x="617" 
d="M583 683h-1c-4 0 -9 -3 -11 -6l-35 -44c-2 -2 -3 -6 -3 -9c0 -8 6 -14 14 -14c4 0 10 2 12 5l34 45c2 2 3 6 3 9c0 8 -5 14 -13 14zM536.039 560c-22 0 -45.0039 -3.99707 -70.0039 -9.99707c-42 -11 -88 -29 -125 -53s-67 -54 -77 -90
c-3.23633 -10.7881 -4.72656 -21.2119 -4.72656 -31.1748c0 -26.9766 10.9307 -50.5674 27.7275 -68.8252c23 -25 57 -43 91 -56c8 -3 15 -6 23 -8c-80 -12 -160 -42 -227 -82c-99.6826 -59.2178 -174.039 -142.787 -174.039 -228.597
c0 -54.4932 30.1543 -94.8887 74.0391 -120.403c41.2148 -23.9619 95.291 -35.0625 153.423 -35.0625c2.51855 0 5.04492 0.0205078 7.57812 0.0625c121 2 260 50 333 146c2 2 3 6 3 9c0 8 -7 14 -15 14c-4 0 -9 -3 -11 -6c-65 -86 -196 -134 -310 -135
c-2.20508 -0.0390625 -4.40332 -0.0585938 -6.59277 -0.0585938c-54.4082 0 -103.838 11.8701 -139.406 32.0576c-37.7578 21.4297 -60.0449 51.8428 -60.0449 96.1523c0 69.21 64.4834 146.701 159.045 202.847c84.377 50.0986 191.156 83.9746 289.784 83.9746
c13.5869 0 27.0186 -0.642578 40.2158 -1.97461h2c8 0 14 6 14 14c0 7 -6 13 -13 14c0 0 -70 7 -133 31c-32 12 -62 29 -80 49c-12.9424 14.3809 -20.7148 29.7959 -20.7148 48.8477c0 7.44434 1.18652 15.4434 3.71484 24.1533c7 25 32 52 66 74s76 40 115 50
c22.3799 5.73828 44.4307 8.5127 62.9395 8.5127c13.7451 0 25.5371 -1.53027 34.0605 -4.51367c10 -3 15 -8 18 -14s3 -14 -2 -28c0 -1 -1 -4 -1 -5c0 -8 6 -15 14 -15c6 0 12 5 14 10c3.74902 10.1748 5.77734 19.7764 5.77734 28.6504
c0 7.69629 -1.52539 14.8457 -4.77637 21.3486c-7 14 -20 24 -35 29c-11 4 -24 6 -38 6h-4z" />
    <glyph glyph-name="Ecircumflex" unicode="&#xca;" horiz-adv-x="617" 
d="M543 687c-4 0 -9 -2 -11 -5c-18 -20 -42 -50 -42 -50c-2 -2 -3 -6 -3 -9c0 -8 6 -14 14 -14c4 0 9 2 11 5c0 0 17 19 30 35c14 -20 30 -39 30 -39c2 -3 7 -5 11 -5c8 0 14 6 14 14c0 3 -2 8 -4 10c0 0 -26 31 -38 51c-2 4 -8 7 -12 7zM536.039 560
c-22 0 -45.0039 -3.99707 -70.0039 -9.99707c-42 -11 -88 -29 -125 -53s-67 -54 -77 -90c-3.23633 -10.7881 -4.72656 -21.2119 -4.72656 -31.1748c0 -26.9766 10.9307 -50.5674 27.7275 -68.8252c23 -25 57 -43 91 -56c8 -3 15 -6 23 -8c-80 -12 -160 -42 -227 -82
c-99.6826 -59.2178 -174.039 -142.787 -174.039 -228.597c0 -54.4932 30.1543 -94.8887 74.0391 -120.403c41.2148 -23.9619 95.291 -35.0625 153.423 -35.0625c2.51855 0 5.04492 0.0205078 7.57812 0.0625c121 2 260 50 333 146c2 2 3 6 3 9c0 8 -7 14 -15 14
c-4 0 -9 -3 -11 -6c-65 -86 -196 -134 -310 -135c-2.20508 -0.0390625 -4.40332 -0.0585938 -6.59277 -0.0585938c-54.4082 0 -103.838 11.8701 -139.406 32.0576c-37.7578 21.4297 -60.0449 51.8428 -60.0449 96.1523c0 69.21 64.4834 146.701 159.045 202.847
c84.377 50.0986 191.156 83.9746 289.784 83.9746c13.5869 0 27.0186 -0.642578 40.2158 -1.97461h2c8 0 14 6 14 14c0 7 -6 13 -13 14c0 0 -70 7 -133 31c-32 12 -62 29 -80 49c-12.9424 14.3809 -20.7148 29.7959 -20.7148 48.8477
c0 7.44434 1.18652 15.4434 3.71484 24.1533c7 25 32 52 66 74s76 40 115 50c22.3799 5.73828 44.4307 8.5127 62.9395 8.5127c13.7451 0 25.5371 -1.53027 34.0605 -4.51367c10 -3 15 -8 18 -14s3 -14 -2 -28c0 -1 -1 -4 -1 -5c0 -8 6 -15 14 -15c6 0 12 5 14 10
c3.74902 10.1748 5.77734 19.7764 5.77734 28.6504c0 7.69629 -1.52539 14.8457 -4.77637 21.3486c-7 14 -20 24 -35 29c-11 4 -24 6 -38 6h-4z" />
    <glyph glyph-name="Edieresis" unicode="&#xcb;" horiz-adv-x="617" 
d="M525 652c-6 0 -12 -4 -14 -10l-8 -24c0 -1 -1 -4 -1 -5c0 -8 7 -14 15 -14c6 0 11 4 13 10l8 24c0 1 1 4 1 5c0 8 -6 14 -14 14zM574 652c-6 0 -12 -4 -14 -10l-8 -24c0 -1 -1 -4 -1 -5c0 -8 7 -14 15 -14c6 0 11 4 13 10l8 24c0 1 1 4 1 5c0 8 -6 14 -14 14z
M536.039 560c-22 0 -45.0039 -3.99707 -70.0039 -9.99707c-42 -11 -88 -29 -125 -53s-67 -54 -77 -90c-3.23633 -10.7881 -4.72656 -21.2119 -4.72656 -31.1748c0 -26.9766 10.9307 -50.5674 27.7275 -68.8252c23 -25 57 -43 91 -56c8 -3 15 -6 23 -8
c-80 -12 -160 -42 -227 -82c-99.6826 -59.2178 -174.039 -142.787 -174.039 -228.597c0 -54.4932 30.1543 -94.8887 74.0391 -120.403c41.2148 -23.9619 95.291 -35.0625 153.423 -35.0625c2.51855 0 5.04492 0.0205078 7.57812 0.0625c121 2 260 50 333 146c2 2 3 6 3 9
c0 8 -7 14 -15 14c-4 0 -9 -3 -11 -6c-65 -86 -196 -134 -310 -135c-2.20508 -0.0390625 -4.40332 -0.0585938 -6.59277 -0.0585938c-54.4082 0 -103.838 11.8701 -139.406 32.0576c-37.7578 21.4297 -60.0449 51.8428 -60.0449 96.1523
c0 69.21 64.4834 146.701 159.045 202.847c84.377 50.0986 191.156 83.9746 289.784 83.9746c13.5869 0 27.0186 -0.642578 40.2158 -1.97461h2c8 0 14 6 14 14c0 7 -6 13 -13 14c0 0 -70 7 -133 31c-32 12 -62 29 -80 49
c-12.9424 14.3809 -20.7148 29.7959 -20.7148 48.8477c0 7.44434 1.18652 15.4434 3.71484 24.1533c7 25 32 52 66 74s76 40 115 50c22.3799 5.73828 44.4307 8.5127 62.9395 8.5127c13.7451 0 25.5371 -1.53027 34.0605 -4.51367c10 -3 15 -8 18 -14s3 -14 -2 -28
c0 -1 -1 -4 -1 -5c0 -8 6 -15 14 -15c6 0 12 5 14 10c3.74902 10.1748 5.77734 19.7764 5.77734 28.6504c0 7.69629 -1.52539 14.8457 -4.77637 21.3486c-7 14 -20 24 -35 29c-11 4 -24 6 -38 6h-4z" />
    <glyph glyph-name="Igrave" unicode="&#xcc;" horiz-adv-x="245" 
d="M170 694h-1c-8 0 -14 -6 -14 -14c0 -3 2 -8 4 -10l41 -44c2 -2 7 -4 10 -4c8 0 14 6 14 14c0 3 -1 8 -3 10l-41 43c-2 2 -7 5 -10 5zM230 590c-14 0 -27 -1 -40 -3c-29 -4 -51 -11 -51 -11c-6 -2 -10 -8 -10 -14c0 -8 6 -14 14 -14h4s21 6 47 10c1 0 2 1 3 1
c-4 -18 -35 -162 -66 -328c-16 -89 -33 -182 -44 -263c-8.54102 -61.4951 -13.4346 -115.695 -13.4346 -156.37c0 -6.94824 0.142578 -13.502 0.43457 -19.6299c-11 -1 -21 -2 -29 -4c-25 -5 -38 -12 -38 -12c-4 -2 -7 -8 -7 -13c0 -8 6 -14 14 -14c2 0 5 1 7 2
c0 0 7 5 29 9c12.7559 2.31934 29.5449 3.96582 51.3428 3.96582c15.7979 0 34.2266 -0.865234 55.6572 -2.96582h2c8 0 14 6 14 14c0 7 -6 14 -13 15c-22 2 -40 3 -57 3c-0.291992 5.54395 -0.43457 11.5781 -0.43457 18.0645c0 37.9697 4.89355 91.4404 13.4346 152.936
c11 80 27 174 43 262c33 177 67 334 67 334l1 1c17 0 34 -1 47 -6c1 -1 3 -1 5 -1c8 0 14 6 14 14c0 5 -4 12 -9 14c-15 6 -31 8 -47 8h-7z" />
    <glyph glyph-name="Iacute" unicode="&#xcd;" horiz-adv-x="245" 
d="M264 704h-1c-4 0 -9 -3 -11 -6l-35 -44c-2 -2 -3 -6 -3 -9c0 -8 6 -14 14 -14c4 0 10 2 12 5l34 45c2 2 3 6 3 9c0 8 -5 14 -13 14zM230 590c-14 0 -27 -1 -40 -3c-29 -4 -51 -11 -51 -11c-6 -2 -10 -8 -10 -14c0 -8 6 -14 14 -14h4s21 6 47 10c1 0 2 1 3 1
c-4 -18 -35 -162 -66 -328c-16 -89 -33 -182 -44 -263c-8.54102 -61.4951 -13.4346 -115.695 -13.4346 -156.37c0 -6.94824 0.142578 -13.502 0.43457 -19.6299c-11 -1 -21 -2 -29 -4c-25 -5 -38 -12 -38 -12c-4 -2 -7 -8 -7 -13c0 -8 6 -14 14 -14c2 0 5 1 7 2
c0 0 7 5 29 9c12.7559 2.31934 29.5449 3.96582 51.3428 3.96582c15.7979 0 34.2266 -0.865234 55.6572 -2.96582h2c8 0 14 6 14 14c0 7 -6 14 -13 15c-22 2 -40 3 -57 3c-0.291992 5.54395 -0.43457 11.5781 -0.43457 18.0645c0 37.9697 4.89355 91.4404 13.4346 152.936
c11 80 27 174 43 262c33 177 67 334 67 334l1 1c17 0 34 -1 47 -6c1 -1 3 -1 5 -1c8 0 14 6 14 14c0 5 -4 12 -9 14c-15 6 -31 8 -47 8h-7z" />
    <glyph glyph-name="Icircumflex" unicode="&#xce;" horiz-adv-x="245" 
d="M227 698c-4 0 -9 -2 -11 -5c-18 -20 -42 -50 -42 -50c-2 -2 -3 -6 -3 -9c0 -8 6 -14 14 -14c4 0 9 2 11 5c0 0 17 19 30 35c14 -20 30 -39 30 -39c2 -3 7 -5 11 -5c8 0 14 6 14 14c0 3 -2 8 -4 10c0 0 -26 31 -38 51c-2 4 -8 7 -12 7zM230 590c-14 0 -27 -1 -40 -3
c-29 -4 -51 -11 -51 -11c-6 -2 -10 -8 -10 -14c0 -8 6 -14 14 -14h4s21 6 47 10c1 0 2 1 3 1c-4 -18 -35 -162 -66 -328c-16 -89 -33 -182 -44 -263c-8.54102 -61.4951 -13.4346 -115.695 -13.4346 -156.37c0 -6.94824 0.142578 -13.502 0.43457 -19.6299
c-11 -1 -21 -2 -29 -4c-25 -5 -38 -12 -38 -12c-4 -2 -7 -8 -7 -13c0 -8 6 -14 14 -14c2 0 5 1 7 2c0 0 7 5 29 9c12.7559 2.31934 29.5449 3.96582 51.3428 3.96582c15.7979 0 34.2266 -0.865234 55.6572 -2.96582h2c8 0 14 6 14 14c0 7 -6 14 -13 15c-22 2 -40 3 -57 3
c-0.291992 5.54395 -0.43457 11.5781 -0.43457 18.0645c0 37.9697 4.89355 91.4404 13.4346 152.936c11 80 27 174 43 262c33 177 67 334 67 334l1 1c17 0 34 -1 47 -6c1 -1 3 -1 5 -1c8 0 14 6 14 14c0 5 -4 12 -9 14c-15 6 -31 8 -47 8h-7z" />
    <glyph glyph-name="Idieresis" unicode="&#xcf;" horiz-adv-x="245" 
d="M205 674c-6 0 -12 -4 -14 -10l-8 -24c0 -1 -1 -4 -1 -5c0 -8 7 -14 15 -14c6 0 11 4 13 10l8 24c0 1 1 4 1 5c0 8 -6 14 -14 14zM254 674c-6 0 -12 -4 -14 -10l-8 -24c0 -1 -1 -4 -1 -5c0 -8 7 -14 15 -14c6 0 11 4 13 10l8 24c0 1 1 4 1 5c0 8 -6 14 -14 14zM230 590
c-14 0 -27 -1 -40 -3c-29 -4 -51 -11 -51 -11c-6 -2 -10 -8 -10 -14c0 -8 6 -14 14 -14h4s21 6 47 10c1 0 2 1 3 1c-4 -18 -35 -162 -66 -328c-16 -89 -33 -182 -44 -263c-8.54102 -61.4951 -13.4346 -115.695 -13.4346 -156.37
c0 -6.94824 0.142578 -13.502 0.43457 -19.6299c-11 -1 -21 -2 -29 -4c-25 -5 -38 -12 -38 -12c-4 -2 -7 -8 -7 -13c0 -8 6 -14 14 -14c2 0 5 1 7 2c0 0 7 5 29 9c12.7559 2.31934 29.5449 3.96582 51.3428 3.96582c15.7979 0 34.2266 -0.865234 55.6572 -2.96582h2
c8 0 14 6 14 14c0 7 -6 14 -13 15c-22 2 -40 3 -57 3c-0.291992 5.54395 -0.43457 11.5781 -0.43457 18.0645c0 37.9697 4.89355 91.4404 13.4346 152.936c11 80 27 174 43 262c33 177 67 334 67 334l1 1c17 0 34 -1 47 -6c1 -1 3 -1 5 -1c8 0 14 6 14 14c0 5 -4 12 -9 14
c-15 6 -31 8 -47 8h-7z" />
    <glyph glyph-name="Eth" unicode="&#xd0;" horiz-adv-x="824" 
d="M344.095 -84c38 0 80 -8 120 -22c-2 -1 -4 -3 -6 -4c-83 -55 -165 -89 -219 -97c-7.38086 -1.09375 -14.1631 -1.58984 -20.2871 -1.58984c-16.2783 0 -27.8994 3.50293 -33.7129 8.58984c-4 3 -7 7 -8 13s0 16 3 28c5 18 18 33 39 46s50 23 83 27c8 1 17 2 26 2h16z
M544.095 560c-80 0 -166.999 -14.001 -247.999 -37.001c-115 -33 -216 -83 -266 -148c-18.6738 -24.6494 -30.0947 -52.0879 -30.0947 -80.2324c0 -9.53516 1.31055 -19.1514 4.09375 -28.7676c11 -38 42 -75 95 -110c2 -1 6 -2 8 -2c8 0 14 6 14 14c0 4 -2 10 -6 12
c-50 33 -75 65 -83 94c-2.15234 7.80371 -3.21875 15.3896 -3.21875 22.8564c0 20.2812 7.87012 39.6787 23.2197 60.1445c42 55 140 107 252 139c79.6797 22.7656 165.434 35.4092 242.857 35.4092c31.4053 0 61.4395 -2.08008 89.1426 -6.4082c48 -8 88 -23 116 -44
c27 -21 43 -48 44 -86c0 -192 -149 -369 -304 -481c-49 21 -101 31 -148 31c-0.524414 7.54785 -0.773438 15.4258 -0.773438 23.5781c0 51.5029 9.95508 113.959 23.4727 173.422h91.2061h1c8 0 14 6 14 14s-6 14 -14 14h-1h-84.5342
c2.79688 11.2275 5.68848 22.2607 8.62891 33c24 89 50 158 50 158c1 1 1 4 1 5c0 8 -6 15 -14 15c-6 0 -12 -5 -14 -10c0 0 -26 -71 -50 -161c-3.51367 -12.9844 -6.98047 -26.3652 -10.3154 -40h-90.7803c-8 0 -14 -6 -14 -14s6 -14 14 -14h84.2158
c-13.1172 -58.5654 -22.8652 -119.923 -22.8652 -173.439c0 -8.39355 0.240234 -16.5947 0.744141 -24.5615c-6 0 -12 -1 -17 -2c-36 -5 -69 -14 -95 -30s-45 -38 -52 -64c-2.66699 -10 -4 -19.5557 -4 -28.3701c0 -4.40723 0.333008 -8.62988 1 -12.6299
c2 -12 10 -23 19 -30c13.0674 -10.3164 28.9727 -14.0107 47.7158 -14.0107c8.50977 0 17.6045 0.761719 27.2842 2.01074c61 9 146 46 231 102c7 5 14 9 21 14c10 -5 19 -9 29 -15c2 -1 6 -2 8 -2c8 0 14 6 14 14c0 5 -3 11 -7 13l-18 9c155 116 303 294 303 495
c-1 46 -22 83 -55 109s-77 41 -128 49c-25 4 -53 6 -81 7h-16z" />
    <glyph glyph-name="Ntilde" unicode="&#xd1;" horiz-adv-x="624" 
d="M419 669c-3 0 -5.99902 0 -8.99902 -1c-15 -4 -24 -14 -31 -22s-13 -12 -16 -12s-8 0 -22 15c-2 3 -7 5 -11 5c-8 0 -14 -6 -14 -14c0 -3 2 -8 4 -10c15.2998 -16.2002 28.9795 -24.2998 42.4971 -24.2998c1.50195 0 3.00195 0.0996094 4.50195 0.299805
c15 2 25 12 32 20s14 13 18 14s10 1 24 -11c2 -2 7 -4 10 -4c8 0 14 6 14 14c0 4 -2 9 -5 11c-13 12 -26 18 -38 19h-3zM609.001 577c-6 0 -11 -4 -13 -10c-101 -320 -129 -512 -177 -724c-7 -29 -15 -46 -19 -49c0 0 -3 1 -6 4c-14 15 -35 67 -53 134
c-36 133 -68 328 -77 450v1c-6 61 -14 101 -24 127c-5 13 -11 22 -21 28c-5 3 -10.75 4.5 -16.375 4.5s-11.125 -1.5 -15.625 -4.5c-18 -11 -29 -33 -42 -64s-26 -72 -39 -117c-51 -182 -98 -453 -105 -578l-1 -1c0 -8 7 -14 15 -14s14 5 14 13c7 121 53 394 104 573
c13 45 26 83 38 112s26 49 31 52l1 1l1 -1c1 -1 5 -5 9 -15c8 -20 16 -59 22 -119c9 -125 42 -320 79 -456c19 -68 36 -119 59 -145c6 -6 13 -12 22 -14s19 2 25 8c13 12 20 32 27 63c48 213 76 404 176 722c0 1 1 4 1 5c0 8 -7 14 -15 14z" />
    <glyph glyph-name="Ograve" unicode="&#xd2;" 
d="M370 680h-1c-8 0 -14 -6 -14 -14c0 -3 2 -8 4 -10l41 -44c2 -2 7 -4 10 -4c8 0 14 6 14 14c0 3 -1 8 -3 10l-41 43c-2 2 -7 5 -10 5zM420.581 561c-18 0 -36.002 -2.99902 -54.002 -9.99902c-37 -14 -75 -41 -111 -84c-44 -13 -84 -39 -117 -73
c-70 -72 -116 -178 -132 -283c-4.30273 -28.2373 -6.58008 -56.3301 -6.58008 -83.5586c0 -74.0205 16.834 -141.653 55.5811 -188.442c26 -32 64 -54 110 -59c7.05273 -0.766602 14.293 -1.15723 21.7285 -1.15723c41.0645 0 88.084 11.9102 142.272 38.1572l2 1
c209.371 135.034 288.046 314.719 288.046 463.877c0 69.5527 -17.1064 132.468 -46.0459 181.123c-23 38 -53 68 -89 84c-18 8 -37 12 -57 13c-2 0 -4 1 -7 1zM420.579 532.001l6.00098 -0.00195312c16 -1 31 -4 46 -11c29 -13 57 -39 77 -73
c26.0674 -43.5508 41.9277 -101.351 41.9277 -166.075c0 -138.881 -73.0234 -309.642 -274.928 -439.924c-50.5576 -24.4355 -93.3047 -33.9609 -128.84 -33.9609c-6.63672 0 -13.0225 0.332031 -19.1602 0.961914c-39 4 -69 21 -91 48
c-32.6709 40.0967 -48.8018 103.9 -48.8018 174.627c0 24.5254 1.93945 49.8828 5.80176 75.373c15 99 60 201 124 267c20 20 42 37 65 50c-32 -48 -63 -110 -91 -188c0 -1 -1 -4 -1 -5c0 -8 7 -14 15 -14c6 0 11 4 13 9c35 98 74 168 114 217
c15.4268 3.85645 31.5977 5.92871 48.4551 5.92871c26.8506 0 55.4424 -5.25684 85.5439 -16.9287c1 -1 3 -1 5 -1c8 0 14 6 14 14c0 5 -4 11 -9 13c-33.333 12.5 -65.2773 18.75 -95.833 18.75c-6.11133 0 -12.167 -0.25 -18.167 -0.75c25 24 50 40 73 48c15 6 30 8 44 8z
" />
    <glyph glyph-name="Oacute" unicode="&#xd3;" 
d="M471 683h-1c-4 0 -9 -3 -11 -6l-35 -44c-2 -2 -3 -6 -3 -9c0 -8 6 -14 14 -14c4 0 10 2 12 5l34 45c2 2 3 6 3 9c0 8 -5 14 -13 14zM420.581 561c-18 0 -36.002 -2.99902 -54.002 -9.99902c-37 -14 -75 -41 -111 -84c-44 -13 -84 -39 -117 -73
c-70 -72 -116 -178 -132 -283c-4.30273 -28.2373 -6.58008 -56.3301 -6.58008 -83.5586c0 -74.0205 16.834 -141.653 55.5811 -188.442c26 -32 64 -54 110 -59c7.05273 -0.766602 14.293 -1.15723 21.7285 -1.15723c41.0645 0 88.084 11.9102 142.272 38.1572l2 1
c209.371 135.034 288.046 314.719 288.046 463.877c0 69.5527 -17.1064 132.468 -46.0459 181.123c-23 38 -53 68 -89 84c-18 8 -37 12 -57 13c-2 0 -4 1 -7 1zM420.579 532.001l6.00098 -0.00195312c16 -1 31 -4 46 -11c29 -13 57 -39 77 -73
c26.0674 -43.5508 41.9277 -101.351 41.9277 -166.075c0 -138.881 -73.0234 -309.642 -274.928 -439.924c-50.5576 -24.4355 -93.3047 -33.9609 -128.84 -33.9609c-6.63672 0 -13.0225 0.332031 -19.1602 0.961914c-39 4 -69 21 -91 48
c-32.6709 40.0967 -48.8018 103.9 -48.8018 174.627c0 24.5254 1.93945 49.8828 5.80176 75.373c15 99 60 201 124 267c20 20 42 37 65 50c-32 -48 -63 -110 -91 -188c0 -1 -1 -4 -1 -5c0 -8 7 -14 15 -14c6 0 11 4 13 9c35 98 74 168 114 217
c15.4268 3.85645 31.5977 5.92871 48.4551 5.92871c26.8506 0 55.4424 -5.25684 85.5439 -16.9287c1 -1 3 -1 5 -1c8 0 14 6 14 14c0 5 -4 11 -9 13c-33.333 12.5 -65.2773 18.75 -95.833 18.75c-6.11133 0 -12.167 -0.25 -18.167 -0.75c25 24 50 40 73 48c15 6 30 8 44 8z
" />
    <glyph glyph-name="Ocircumflex" unicode="&#xd4;" 
d="M430 687c-4 0 -9 -2 -11 -5c-18 -20 -42 -50 -42 -50c-2 -2 -3 -6 -3 -9c0 -8 6 -14 14 -14c4 0 9 2 11 5c0 0 17 19 30 35c14 -20 30 -39 30 -39c2 -3 7 -5 11 -5c8 0 14 6 14 14c0 3 -2 8 -4 10c0 0 -26 31 -38 51c-2 4 -8 7 -12 7zM420.581 561
c-18 0 -36.002 -2.99902 -54.002 -9.99902c-37 -14 -75 -41 -111 -84c-44 -13 -84 -39 -117 -73c-70 -72 -116 -178 -132 -283c-4.30273 -28.2373 -6.58008 -56.3301 -6.58008 -83.5586c0 -74.0205 16.834 -141.653 55.5811 -188.442c26 -32 64 -54 110 -59
c7.05273 -0.766602 14.293 -1.15723 21.7285 -1.15723c41.0645 0 88.084 11.9102 142.272 38.1572l2 1c209.371 135.034 288.046 314.719 288.046 463.877c0 69.5527 -17.1064 132.468 -46.0459 181.123c-23 38 -53 68 -89 84c-18 8 -37 12 -57 13c-2 0 -4 1 -7 1z
M420.579 532.001l6.00098 -0.00195312c16 -1 31 -4 46 -11c29 -13 57 -39 77 -73c26.0674 -43.5508 41.9277 -101.351 41.9277 -166.075c0 -138.881 -73.0234 -309.642 -274.928 -439.924c-50.5576 -24.4355 -93.3047 -33.9609 -128.84 -33.9609
c-6.63672 0 -13.0225 0.332031 -19.1602 0.961914c-39 4 -69 21 -91 48c-32.6709 40.0967 -48.8018 103.9 -48.8018 174.627c0 24.5254 1.93945 49.8828 5.80176 75.373c15 99 60 201 124 267c20 20 42 37 65 50c-32 -48 -63 -110 -91 -188c0 -1 -1 -4 -1 -5
c0 -8 7 -14 15 -14c6 0 11 4 13 9c35 98 74 168 114 217c15.4268 3.85645 31.5977 5.92871 48.4551 5.92871c26.8506 0 55.4424 -5.25684 85.5439 -16.9287c1 -1 3 -1 5 -1c8 0 14 6 14 14c0 5 -4 11 -9 13c-33.333 12.5 -65.2773 18.75 -95.833 18.75
c-6.11133 0 -12.167 -0.25 -18.167 -0.75c25 24 50 40 73 48c15 6 30 8 44 8z" />
    <glyph glyph-name="Otilde" unicode="&#xd5;" 
d="M459 671c-3 0 -5.99902 0 -8.99902 -1c-15 -4 -24 -14 -31 -22s-13 -12 -16 -12s-8 0 -22 15c-2 3 -7 5 -11 5c-8 0 -14 -6 -14 -14c0 -3 2 -8 4 -10c15.2998 -16.2002 28.9795 -24.2998 42.4971 -24.2998c1.50195 0 3.00195 0.0996094 4.50195 0.299805
c15 2 25 12 32 20s14 13 18 14s10 1 24 -11c2 -2 7 -4 10 -4c8 0 14 6 14 14c0 4 -2 9 -5 11c-13 12 -26 18 -38 19h-3zM420.582 561c-18 0 -36.002 -2.99902 -54.002 -9.99902c-37 -14 -75 -41 -111 -84c-44 -13 -84 -39 -117 -73c-70 -72 -116 -178 -132 -283
c-4.30273 -28.2373 -6.58008 -56.3301 -6.58008 -83.5586c0 -74.0205 16.834 -141.653 55.5811 -188.442c26 -32 64 -54 110 -59c7.05273 -0.766602 14.293 -1.15723 21.7285 -1.15723c41.0645 0 88.084 11.9102 142.272 38.1572l2 1
c209.371 135.034 288.046 314.719 288.046 463.877c0 69.5527 -17.1064 132.468 -46.0459 181.123c-23 38 -53 68 -89 84c-18 8 -37 12 -57 13c-2 0 -4 1 -7 1zM420.58 532.001l6.00098 -0.00195312c16 -1 31 -4 46 -11c29 -13 57 -39 77 -73
c26.0674 -43.5508 41.9277 -101.351 41.9277 -166.075c0 -138.881 -73.0234 -309.642 -274.928 -439.924c-50.5576 -24.4355 -93.3047 -33.9609 -128.84 -33.9609c-6.63672 0 -13.0225 0.332031 -19.1602 0.961914c-39 4 -69 21 -91 48
c-32.6709 40.0967 -48.8018 103.9 -48.8018 174.627c0 24.5254 1.93945 49.8828 5.80176 75.373c15 99 60 201 124 267c20 20 42 37 65 50c-32 -48 -63 -110 -91 -188c0 -1 -1 -4 -1 -5c0 -8 7 -14 15 -14c6 0 11 4 13 9c35 98 74 168 114 217
c15.4268 3.85645 31.5977 5.92871 48.4551 5.92871c26.8506 0 55.4424 -5.25684 85.5439 -16.9287c1 -1 3 -1 5 -1c8 0 14 6 14 14c0 5 -4 11 -9 13c-33.333 12.5 -65.2773 18.75 -95.833 18.75c-6.11133 0 -12.167 -0.25 -18.167 -0.75c25 24 50 40 73 48c15 6 30 8 44 8z
" />
    <glyph glyph-name="Odieresis" unicode="&#xd6;" 
d="M409 665c-6 0 -12 -4 -14 -10l-8 -24c0 -1 -1 -4 -1 -5c0 -8 7 -14 15 -14c6 0 11 4 13 10l8 24c0 1 1 4 1 5c0 8 -6 14 -14 14zM458 665c-6 0 -12 -4 -14 -10l-8 -24c0 -1 -1 -4 -1 -5c0 -8 7 -14 15 -14c6 0 11 4 13 10l8 24c0 1 1 4 1 5c0 8 -6 14 -14 14z
M420.581 561c-18 0 -36.002 -2.99902 -54.002 -9.99902c-37 -14 -75 -41 -111 -84c-44 -13 -84 -39 -117 -73c-70 -72 -116 -178 -132 -283c-4.30273 -28.2373 -6.58008 -56.3301 -6.58008 -83.5586c0 -74.0205 16.834 -141.653 55.5811 -188.442c26 -32 64 -54 110 -59
c7.05273 -0.766602 14.293 -1.15723 21.7285 -1.15723c41.0645 0 88.084 11.9102 142.272 38.1572l2 1c209.371 135.034 288.046 314.719 288.046 463.877c0 69.5527 -17.1064 132.468 -46.0459 181.123c-23 38 -53 68 -89 84c-18 8 -37 12 -57 13c-2 0 -4 1 -7 1z
M420.579 532.001l6.00098 -0.00195312c16 -1 31 -4 46 -11c29 -13 57 -39 77 -73c26.0674 -43.5508 41.9277 -101.351 41.9277 -166.075c0 -138.881 -73.0234 -309.642 -274.928 -439.924c-50.5576 -24.4355 -93.3047 -33.9609 -128.84 -33.9609
c-6.63672 0 -13.0225 0.332031 -19.1602 0.961914c-39 4 -69 21 -91 48c-32.6709 40.0967 -48.8018 103.9 -48.8018 174.627c0 24.5254 1.93945 49.8828 5.80176 75.373c15 99 60 201 124 267c20 20 42 37 65 50c-32 -48 -63 -110 -91 -188c0 -1 -1 -4 -1 -5
c0 -8 7 -14 15 -14c6 0 11 4 13 9c35 98 74 168 114 217c15.4268 3.85645 31.5977 5.92871 48.4551 5.92871c26.8506 0 55.4424 -5.25684 85.5439 -16.9287c1 -1 3 -1 5 -1c8 0 14 6 14 14c0 5 -4 11 -9 13c-33.333 12.5 -65.2773 18.75 -95.833 18.75
c-6.11133 0 -12.167 -0.25 -18.167 -0.75c25 24 50 40 73 48c15 6 30 8 44 8z" />
    <glyph glyph-name="multiply" unicode="&#xd7;" horiz-adv-x="307" 
d="M243 280c-4 0 -9 -2 -11 -5l-81 -93c-30 33 -61 63 -77 79c-2 2 -7 5 -10 5c-8 0 -14 -7 -14 -15c0 -3 2 -8 4 -10c16 -15 48 -48 78 -81l-53 -61c-2 -2 -4 -7 -4 -10c0 -8 7 -14 15 -14c4 0 8 2 10 5l51 59c23 -25 43 -50 52 -63c2 -4 8 -6 12 -6c8 0 14 6 14 14
c0 2 -1 6 -2 8c-11 17 -32 43 -56 69l83 95c2 2 3 7 3 10c0 8 -6 14 -14 14z" />
    <glyph glyph-name="Oslash" unicode="&#xd8;" 
d="M420.581 532l6.00098 0.000976562c16 -1 31 -4 46 -11c17.6514 -7.91309 34.9326 -20.6426 50.2646 -37.0605c-113.777 -152.432 -332.727 -446.554 -454.158 -614.841c-26.7061 40.2246 -39.9082 98.543 -39.9082 162.527c0 24.5254 1.93945 49.8828 5.80176 75.373
c15 99 60 201 124 267c20 20 42 37 65 50c-32 -48 -63 -110 -91 -188c0 -1 -1 -4 -1 -5c0 -8 7 -14 15 -14c6 0 11 4 13 9c35 98 74 168 114 217c15.4268 3.85645 31.5977 5.92871 48.4551 5.92871c26.8506 0 55.4424 -5.25684 85.5439 -16.9287c1 -1 3 -1 5 -1
c8 0 14 6 14 14c0 5 -4 11 -9 13c-33.333 12.5 -65.2773 18.75 -95.833 18.75c-6.11133 0 -12.167 -0.25 -18.167 -0.75c25 24 50 40 73 48c15 6 30 8 44 8zM420.582 561.001c-18 0 -36.0029 -2.99902 -54.0029 -9.99902c-37 -14 -75 -41 -111 -84c-44 -13 -84 -39 -117 -73
c-70 -72 -116 -178 -132 -283c-4.30273 -28.2373 -6.58008 -56.3301 -6.58008 -83.5586c0 -71.0957 15.5303 -136.3 51.0918 -182.801c-24.417 -34.0527 -43.6289 -61.374 -55.4834 -79.1221l-0.492188 -0.871094c-3.93652 -6.96484 -1.66504 -15.1406 5.29883 -19.0762
c6.09473 -3.44531 14.6924 -1.38965 18.585 4.42773c11.0957 16.5801 28.8047 41.7744 51.2988 73.1689c24.8154 -23.3428 57.3252 -39.043 95.2822 -43.1689c7.05273 -0.766602 14.293 -1.15723 21.7285 -1.15723c41.0645 0 88.084 11.9102 142.272 38.1572l2 1
c209.371 135.034 288.046 314.719 288.046 463.877c0 69.5527 -17.1064 132.468 -46.0459 181.123c-4.64746 7.67773 -9.58008 15.0293 -14.79 22.0049c37.0752 49.6611 60.0654 80.373 60.0654 80.373l0.984375 1.74121c3.93652 6.96484 1.66504 15.1406 -5.29883 19.0771
c-6.09375 3.44434 -14.2695 1.17285 -18.585 -4.42871c0 0 -21.2451 -28.3721 -55.8291 -74.6816c-16.4404 17.1152 -35.0176 30.791 -55.5459 39.9141c-18 8 -37 12 -57 13c-2 0 -4 1 -7 1zM541.085 461.285c2.96484 -4.27441 5.80078 -8.70898 8.49316 -13.2861
c26.0674 -43.5508 41.9277 -101.351 41.9277 -166.075c0 -138.881 -73.0234 -309.642 -274.928 -439.924c-50.5576 -24.4355 -93.3047 -33.9609 -128.84 -33.9609c-6.63672 0 -13.0225 0.332031 -19.1602 0.961914c-33.6641 3.45312 -60.6221 16.5918 -81.5176 37.4873
c118.486 164.315 337.454 458.57 454.024 614.797z" />
    <glyph glyph-name="Ugrave" unicode="&#xd9;" horiz-adv-x="642" 
d="M314 680h-1c-8 0 -14 -6 -14 -14c0 -3 2 -8 4 -10l41 -44c2 -2 7 -4 10 -4c8 0 14 6 14 14c0 3 -1 8 -3 10l-41 43c-2 2 -7 5 -10 5zM584.741 577l-0.999023 0.00195312c-7 0 -13 -6 -14 -13c0 0 -56 -470 -396 -723
c-38.834 -28.6631 -68.2637 -40.2275 -87.499 -40.2275c-1.56836 0 -3.06934 0.0771484 -4.50195 0.227539c-19 2 -31 14 -40 39c-8.8291 23.6982 -12.6914 57.5449 -12.6914 97.627c0 46.1758 5.12598 100.627 13.6914 157.371c31 213 106 460 106 460c0 1 1 3 1 4
c0 8 -6 14 -14 14c-6 0 -12 -4 -14 -10c0 0 -75 -247 -107 -463c-8.70117 -58.7344 -14.7412 -115.103 -14.7412 -164.279c-0 -41.249 4.24902 -77.4385 14.7412 -105.721c11 -31 34 -55 65 -58c2.45801 -0.238281 4.94043 -0.356445 7.45117 -0.356445
c29.1611 0 62.1162 15.9727 103.549 46.3564c176 131 277 315 335 468c-12 -62 -25 -126 -39 -187c-38 -171 -75 -317 -75 -317c0 -1 -1 -3 -1 -4c0 -8 6 -14 14 -14c6 0 13 5 14 11c0 0 37 146 75 317s79 366 85 469v1v1c0 8 -6 14 -14 14z" />
    <glyph glyph-name="Uacute" unicode="&#xda;" horiz-adv-x="642" 
d="M398 683h-1c-4 0 -9 -3 -11 -6l-35 -44c-2 -2 -3 -6 -3 -9c0 -8 6 -14 14 -14c4 0 10 2 12 5l34 45c2 2 3 6 3 9c0 8 -5 14 -13 14zM584.741 577l-0.999023 0.00195312c-7 0 -13 -6 -14 -13c0 0 -56 -470 -396 -723c-38.834 -28.6631 -68.2637 -40.2275 -87.499 -40.2275
c-1.56836 0 -3.06934 0.0771484 -4.50195 0.227539c-19 2 -31 14 -40 39c-8.8291 23.6982 -12.6914 57.5449 -12.6914 97.627c0 46.1758 5.12598 100.627 13.6914 157.371c31 213 106 460 106 460c0 1 1 3 1 4c0 8 -6 14 -14 14c-6 0 -12 -4 -14 -10c0 0 -75 -247 -107 -463
c-8.70117 -58.7344 -14.7412 -115.103 -14.7412 -164.279c-0 -41.249 4.24902 -77.4385 14.7412 -105.721c11 -31 34 -55 65 -58c2.45801 -0.238281 4.94043 -0.356445 7.45117 -0.356445c29.1611 0 62.1162 15.9727 103.549 46.3564c176 131 277 315 335 468
c-12 -62 -25 -126 -39 -187c-38 -171 -75 -317 -75 -317c0 -1 -1 -3 -1 -4c0 -8 6 -14 14 -14c6 0 13 5 14 11c0 0 37 146 75 317s79 366 85 469v1v1c0 8 -6 14 -14 14z" />
    <glyph glyph-name="Ucircumflex" unicode="&#xdb;" horiz-adv-x="642" 
d="M368 687c-4 0 -9 -2 -11 -5c-18 -20 -42 -50 -42 -50c-2 -2 -3 -6 -3 -9c0 -8 6 -14 14 -14c4 0 9 2 11 5c0 0 17 19 30 35c14 -20 30 -39 30 -39c2 -3 7 -5 11 -5c8 0 14 6 14 14c0 3 -2 8 -4 10c0 0 -26 31 -38 51c-2 4 -8 7 -12 7zM584.741 577l-0.999023 0.00195312
c-7 0 -13 -6 -14 -13c0 0 -56 -470 -396 -723c-38.834 -28.6631 -68.2637 -40.2275 -87.499 -40.2275c-1.56836 0 -3.06934 0.0771484 -4.50195 0.227539c-19 2 -31 14 -40 39c-8.8291 23.6982 -12.6914 57.5449 -12.6914 97.627c0 46.1758 5.12598 100.627 13.6914 157.371
c31 213 106 460 106 460c0 1 1 3 1 4c0 8 -6 14 -14 14c-6 0 -12 -4 -14 -10c0 0 -75 -247 -107 -463c-8.70117 -58.7344 -14.7412 -115.103 -14.7412 -164.279c-0 -41.249 4.24902 -77.4385 14.7412 -105.721c11 -31 34 -55 65 -58
c2.45801 -0.238281 4.94043 -0.356445 7.45117 -0.356445c29.1611 0 62.1162 15.9727 103.549 46.3564c176 131 277 315 335 468c-12 -62 -25 -126 -39 -187c-38 -171 -75 -317 -75 -317c0 -1 -1 -3 -1 -4c0 -8 6 -14 14 -14c6 0 13 5 14 11c0 0 37 146 75 317
s79 366 85 469v1v1c0 8 -6 14 -14 14z" />
    <glyph glyph-name="Udieresis" unicode="&#xdc;" horiz-adv-x="642" 
d="M342 665c-6 0 -12 -4 -14 -10l-8 -24c0 -1 -1 -4 -1 -5c0 -8 7 -14 15 -14c6 0 11 4 13 10l8 24c0 1 1 4 1 5c0 8 -6 14 -14 14zM391 665c-6 0 -12 -4 -14 -10l-8 -24c0 -1 -1 -4 -1 -5c0 -8 7 -14 15 -14c6 0 11 4 13 10l8 24c0 1 1 4 1 5c0 8 -6 14 -14 14z
M584.741 577l-0.999023 0.00195312c-7 0 -13 -6 -14 -13c0 0 -56 -470 -396 -723c-38.834 -28.6631 -68.2637 -40.2275 -87.499 -40.2275c-1.56836 0 -3.06934 0.0771484 -4.50195 0.227539c-19 2 -31 14 -40 39c-8.8291 23.6982 -12.6914 57.5449 -12.6914 97.627
c0 46.1758 5.12598 100.627 13.6914 157.371c31 213 106 460 106 460c0 1 1 3 1 4c0 8 -6 14 -14 14c-6 0 -12 -4 -14 -10c0 0 -75 -247 -107 -463c-8.70117 -58.7344 -14.7412 -115.103 -14.7412 -164.279c-0 -41.249 4.24902 -77.4385 14.7412 -105.721
c11 -31 34 -55 65 -58c2.45801 -0.238281 4.94043 -0.356445 7.45117 -0.356445c29.1611 0 62.1162 15.9727 103.549 46.3564c176 131 277 315 335 468c-12 -62 -25 -126 -39 -187c-38 -171 -75 -317 -75 -317c0 -1 -1 -3 -1 -4c0 -8 6 -14 14 -14c6 0 13 5 14 11
c0 0 37 146 75 317s79 366 85 469v1v1c0 8 -6 14 -14 14z" />
    <glyph glyph-name="Yacute" unicode="&#xdd;" horiz-adv-x="538" 
d="M376 683h-1c-4 0 -9 -3 -11 -6l-35 -44c-2 -2 -3 -6 -3 -9c0 -8 6 -14 14 -14c4 0 10 2 12 5l34 45c2 2 3 6 3 9c0 8 -5 14 -13 14zM553.432 577l-0.99707 0.000976562c-6 0 -13 -5 -14 -11c-9 -36 -17 -70 -25 -103c-7 -20 -16 -42 -28 -65c-48 -96 -138 -218 -309 -317
c-42 -24 -74 -34 -95 -34s-32 6 -40 21c-7.97266 13.6006 -11.5469 35.3398 -11.5469 62.1221c0 30.3242 4.58105 67.1143 12.5459 105.878c30 145 103 318 103 318c1 2 2 4 2 6c0 8 -7 14 -15 14c-5 0 -11 -4 -13 -9c0 0 -74 -173 -105 -323
c-8.47949 -39.749 -14.4316 -77.8125 -14.4316 -111.362c0 -29.7539 4.68066 -55.958 16.4307 -76.6387c13 -22 36 -36 65 -36s65 13 109 39c141 82 230 179 285 266c-26 -93 -52 -171 -76 -236c-0.994141 0.00976562 -1.98438 0.0146484 -2.97168 0.0146484
c-95.3574 0 -159.397 -47.6094 -195.028 -105.015c-21 -34 -32 -70 -35 -103c-0.68457 -7.5332 -1.05664 -14.9629 -1.05664 -22.1924c0 -24.4404 4.25293 -46.6016 15.0566 -62.8076c7 -11 17 -19 29 -22c3.59961 -0.900391 7.46973 -1.35059 11.4746 -1.35059
c9.34473 0 19.4248 2.4502 28.5244 7.35059c27 14 55 46 87 101c25 43 54 102 83 179c8 -1 15 -2 23 -3h3c8 0 14 6 14 14c0 7 -5 13 -12 14c-6 1 -12 1 -18 2c35 95 72 218 111 370c23 64 26 107 26 107l1 1c0 8 -6 14 -14 14zM388.435 59.001
c-28 -71 -52.999 -125.999 -75.999 -165.999c-31 -53 -58 -81 -76 -90c-9 -5 -16 -5 -20 -4s-8 5 -12 11c-6.40039 9.59961 -10.8809 27.5195 -10.8809 49.1514c0 5.4082 0.280273 11.0479 0.879883 16.8477c3 29 13 61 31 91c30 49 82 90 163 92z" />
    <glyph glyph-name="agrave" unicode="&#xe0;" horiz-adv-x="267" 
d="M27 279h-1c-8 0 -14 -6 -14 -14c0 -3 2 -8 4 -10l41 -44c2 -2 7 -4 10 -4c8 0 14 6 14 14c0 3 -1 8 -3 10l-41 43c-2 2 -7 5 -10 5zM110.647 175c-5 0 -10.999 -5.00098 -12.999 -10.001c0 -1 -1 -1 -1 -2s-2 -5 -4 -10c-5 4 -14 10 -26 12
c-3.24805 0.72168 -6.72461 1.11816 -10.3584 1.11816c-16.502 0 -36.251 -8.1709 -52.6416 -31.1182c-19 -26 -33 -55 -40 -80c-2.32422 -9.29492 -4.64844 -17.9902 -4.64844 -26.5498c0 -2.49121 0.197266 -4.9707 0.648438 -7.4502c1 -5 4 -11 8 -16s11 -8 17 -8
c9 -1 15 3 21 7s12 10 19 16c13 12 28 29 42 46c3 4 5 6 8 10c-0.708984 -6.02246 -1.04102 -11.668 -1.04102 -16.9814c0 -9.68652 1.10352 -18.2695 3.04102 -26.0186c3 -14 12 -25 23 -31c7.05176 -3.84668 14.5146 -5.63867 22.3887 -5.63867
c4.4082 0 8.94531 0.561523 13.6113 1.63867c25 5 52 22 79 42s53 45 72 69c2 2 4 6 4 9c0 8 -7 14 -15 14c-4 0 -9 -2 -11 -5c-18 -22 -42 -46 -67 -65s-50 -32 -67 -36c-9 -2 -15 -1 -18 1s-7 4 -9 13c-0.920898 3.68262 -1.41797 8.42383 -1.41797 14.2129
c0 19.3643 5.55957 50.4453 19.417 92.7881c1 2 1 4 2 6c0 1 1 2 1 3v1c0 1 1 2 1 3c0 8 -7 15 -15 15zM54.6484 137.999c2 0 5 -1 7 -1c9 -2 15 -7 15 -7l1 -1c-9 -14 -21 -30 -33 -45c-13 -17 -28 -33 -40 -44c-6 -5 -11 -10 -15 -12c-1 -1 0 -1 -1 -1c0 4 0 12 2 21
c6 20 19 47 36 70c12 16 21 20 28 20z" />
    <glyph glyph-name="aacute" unicode="&#xe1;" horiz-adv-x="267" 
d="M124 285h-1c-4 0 -9 -3 -11 -6l-35 -44c-2 -2 -3 -6 -3 -9c0 -8 6 -14 14 -14c4 0 10 2 12 5l34 45c2 2 3 6 3 9c0 8 -5 14 -13 14zM110.647 175c-5 0 -10.999 -5.00098 -12.999 -10.001c0 -1 -1 -1 -1 -2s-2 -5 -4 -10c-5 4 -14 10 -26 12
c-3.24805 0.72168 -6.72461 1.11816 -10.3584 1.11816c-16.502 0 -36.251 -8.1709 -52.6416 -31.1182c-19 -26 -33 -55 -40 -80c-2.32422 -9.29492 -4.64844 -17.9902 -4.64844 -26.5498c0 -2.49121 0.197266 -4.9707 0.648438 -7.4502c1 -5 4 -11 8 -16s11 -8 17 -8
c9 -1 15 3 21 7s12 10 19 16c13 12 28 29 42 46c3 4 5 6 8 10c-0.708984 -6.02246 -1.04102 -11.668 -1.04102 -16.9814c0 -9.68652 1.10352 -18.2695 3.04102 -26.0186c3 -14 12 -25 23 -31c7.05176 -3.84668 14.5146 -5.63867 22.3887 -5.63867
c4.4082 0 8.94531 0.561523 13.6113 1.63867c25 5 52 22 79 42s53 45 72 69c2 2 4 6 4 9c0 8 -7 14 -15 14c-4 0 -9 -2 -11 -5c-18 -22 -42 -46 -67 -65s-50 -32 -67 -36c-9 -2 -15 -1 -18 1s-7 4 -9 13c-0.920898 3.68262 -1.41797 8.42383 -1.41797 14.2129
c0 19.3643 5.55957 50.4453 19.417 92.7881c1 2 1 4 2 6c0 1 1 2 1 3v1c0 1 1 2 1 3c0 8 -7 15 -15 15zM54.6484 137.999c2 0 5 -1 7 -1c9 -2 15 -7 15 -7l1 -1c-9 -14 -21 -30 -33 -45c-13 -17 -28 -33 -40 -44c-6 -5 -11 -10 -15 -12c-1 -1 0 -1 -1 -1c0 4 0 12 2 21
c6 20 19 47 36 70c12 16 21 20 28 20z" />
    <glyph glyph-name="acircumflex" unicode="&#xe2;" horiz-adv-x="267" 
d="M78 295c-4 0 -9 -2 -11 -5c-18 -20 -42 -50 -42 -50c-2 -2 -3 -6 -3 -9c0 -8 6 -14 14 -14c4 0 9 2 11 5c0 0 17 19 30 35c14 -20 30 -39 30 -39c2 -3 7 -5 11 -5c8 0 14 6 14 14c0 3 -2 8 -4 10c0 0 -26 31 -38 51c-2 4 -8 7 -12 7zM110.647 175
c-5 0 -10.999 -5.00098 -12.999 -10.001c0 -1 -1 -1 -1 -2s-2 -5 -4 -10c-5 4 -14 10 -26 12c-3.24805 0.72168 -6.72461 1.11816 -10.3584 1.11816c-16.502 0 -36.251 -8.1709 -52.6416 -31.1182c-19 -26 -33 -55 -40 -80
c-2.32422 -9.29492 -4.64844 -17.9902 -4.64844 -26.5498c0 -2.49121 0.197266 -4.9707 0.648438 -7.4502c1 -5 4 -11 8 -16s11 -8 17 -8c9 -1 15 3 21 7s12 10 19 16c13 12 28 29 42 46c3 4 5 6 8 10c-0.708984 -6.02246 -1.04102 -11.668 -1.04102 -16.9814
c0 -9.68652 1.10352 -18.2695 3.04102 -26.0186c3 -14 12 -25 23 -31c7.05176 -3.84668 14.5146 -5.63867 22.3887 -5.63867c4.4082 0 8.94531 0.561523 13.6113 1.63867c25 5 52 22 79 42s53 45 72 69c2 2 4 6 4 9c0 8 -7 14 -15 14c-4 0 -9 -2 -11 -5
c-18 -22 -42 -46 -67 -65s-50 -32 -67 -36c-9 -2 -15 -1 -18 1s-7 4 -9 13c-0.920898 3.68262 -1.41797 8.42383 -1.41797 14.2129c0 19.3643 5.55957 50.4453 19.417 92.7881c1 2 1 4 2 6c0 1 1 2 1 3v1c0 1 1 2 1 3c0 8 -7 15 -15 15zM54.6484 137.999c2 0 5 -1 7 -1
c9 -2 15 -7 15 -7l1 -1c-9 -14 -21 -30 -33 -45c-13 -17 -28 -33 -40 -44c-6 -5 -11 -10 -15 -12c-1 -1 0 -1 -1 -1c0 4 0 12 2 21c6 20 19 47 36 70c12 16 21 20 28 20z" />
    <glyph glyph-name="atilde" unicode="&#xe3;" horiz-adv-x="267" 
d="M95 264c-3 0 -5.99902 0 -8.99902 -1c-15 -4 -24 -14 -31 -22s-13 -12 -16 -12s-8 0 -22 15c-2 3 -7 5 -11 5c-8 0 -14 -6 -14 -14c0 -3 2 -8 4 -10c15.2998 -16.2002 28.9795 -24.2998 42.4971 -24.2998c1.50195 0 3.00195 0.0996094 4.50195 0.299805c15 2 25 12 32 20
s14 13 18 14s10 1 24 -11c2 -2 7 -4 10 -4c8 0 14 6 14 14c0 4 -2 9 -5 11c-13 12 -26 18 -38 19h-3zM110.648 175c-5 0 -11 -5.00098 -13 -10.001c0 -1 -1 -1 -1 -2s-2 -5 -4 -10c-5 4 -14 10 -26 12c-3.24805 0.72168 -6.72461 1.11816 -10.3584 1.11816
c-16.502 0 -36.251 -8.1709 -52.6416 -31.1182c-19 -26 -33 -55 -40 -80c-2.32422 -9.29492 -4.64844 -17.9902 -4.64844 -26.5498c0 -2.49121 0.197266 -4.9707 0.648438 -7.4502c1 -5 4 -11 8 -16s11 -8 17 -8c9 -1 15 3 21 7s12 10 19 16c13 12 28 29 42 46c3 4 5 6 8 10
c-0.708008 -6.02246 -1.04004 -11.668 -1.04004 -16.9814c0 -9.68652 1.10352 -18.2695 3.04102 -26.0186c3 -14 12 -25 23 -31c7.05176 -3.84668 14.5146 -5.63867 22.3887 -5.63867c4.4082 0 8.94531 0.561523 13.6113 1.63867c25 5 52 22 79 42s53 45 72 69c2 2 4 6 4 9
c0 8 -7 14 -15 14c-4 0 -9 -2 -11 -5c-18 -22 -42 -46 -67 -65s-50 -32 -67 -36c-9 -2 -15 -1 -18 1s-7 4 -9 13c-0.920898 3.68262 -1.41797 8.42383 -1.41797 14.2129c0 19.3643 5.55957 50.4453 19.417 92.7881c1 2 1 4 2 6c0 1 1 2 1 3v1c0 1 1 2 1 3c0 8 -7 15 -15 15z
M54.6484 137.999c2 0 5 -1 7 -1c9 -2 15 -7 15 -7l1 -1c-9 -14 -21 -30 -33 -45c-13 -17 -28 -33 -40 -44c-6 -5 -11 -10 -15 -12c-1 -1 0 -1 -1 -1c0 4 0 12 2 21c6 20 19 47 36 70c12 16 21 20 28 20z" />
    <glyph glyph-name="adieresis" unicode="&#xe4;" horiz-adv-x="267" 
d="M53.1592 247c-6 0 -12 -4 -14 -10l-8 -24c0 -1 -1 -4 -1 -5c0 -8 7 -14 15 -14c6 0 11 4 13 10l8 24c0 1 1 4 1 5c0 8 -6 14 -14 14zM102.159 247c-6 0 -12 -4 -14 -10l-8 -24c0 -1 -1 -4 -1 -5c0 -8 7 -14 15 -14c6 0 11 4 13 10l8 24c0 1 1 4 1 5c0 8 -6 14 -14 14z
M110.647 175c-5 0 -10.999 -5.00098 -12.999 -10.001c0 -1 -1 -1 -1 -2s-2 -5 -4 -10c-5 4 -14 10 -26 12c-3.24805 0.72168 -6.72461 1.11816 -10.3584 1.11816c-16.502 0 -36.251 -8.1709 -52.6416 -31.1182c-19 -26 -33 -55 -40 -80
c-2.32422 -9.29492 -4.64844 -17.9902 -4.64844 -26.5498c0 -2.49121 0.197266 -4.9707 0.648438 -7.4502c1 -5 4 -11 8 -16s11 -8 17 -8c9 -1 15 3 21 7s12 10 19 16c13 12 28 29 42 46c3 4 5 6 8 10c-0.708984 -6.02246 -1.04102 -11.668 -1.04102 -16.9814
c0 -9.68652 1.10352 -18.2695 3.04102 -26.0186c3 -14 12 -25 23 -31c7.05176 -3.84668 14.5146 -5.63867 22.3887 -5.63867c4.4082 0 8.94531 0.561523 13.6113 1.63867c25 5 52 22 79 42s53 45 72 69c2 2 4 6 4 9c0 8 -7 14 -15 14c-4 0 -9 -2 -11 -5
c-18 -22 -42 -46 -67 -65s-50 -32 -67 -36c-9 -2 -15 -1 -18 1s-7 4 -9 13c-0.920898 3.68262 -1.41797 8.42383 -1.41797 14.2129c0 19.3643 5.55957 50.4453 19.417 92.7881c1 2 1 4 2 6c0 1 1 2 1 3v1c0 1 1 2 1 3c0 8 -7 15 -15 15zM54.6484 137.999c2 0 5 -1 7 -1
c9 -2 15 -7 15 -7l1 -1c-9 -14 -21 -30 -33 -45c-13 -17 -28 -33 -40 -44c-6 -5 -11 -10 -15 -12c-1 -1 0 -1 -1 -1c0 4 0 12 2 21c6 20 19 47 36 70c12 16 21 20 28 20z" />
    <glyph glyph-name="aring" unicode="&#xe5;" horiz-adv-x="267" 
d="M110 288c-25 0 -44 -17.998 -52 -36.998c-2.19434 -5.48633 -3.78711 -10.9727 -3.78711 -16.624c0 -4.65039 1.07812 -9.41211 3.78711 -14.3779c6 -11 18 -17 32 -17c25 0 42 20 47 39c3 9 3 19 -1 28s-14 18 -26 18zM109 259.002c0 -1 1 -5 0 -10
c-3 -9 -9 -17 -19 -17c-7 0 -7 1 -7 1s-1 3 1 7c4 9 15 19 25 19zM110.647 175.002c-5 0 -10.999 -5.00098 -12.999 -10.001c0 -1 -1 -1 -1 -2s-2 -5 -4 -10c-5 4 -14 10 -26 12c-3.24805 0.72168 -6.72461 1.11816 -10.3584 1.11816
c-16.502 0 -36.251 -8.1709 -52.6416 -31.1182c-19 -26 -33 -55 -40 -80c-2.32422 -9.29492 -4.64844 -17.9902 -4.64844 -26.5498c0 -2.49121 0.197266 -4.9707 0.648438 -7.4502c1 -5 4 -11 8 -16s11 -8 17 -8c9 -1 15 3 21 7s12 10 19 16c13 12 28 29 42 46c3 4 5 6 8 10
c-0.708984 -6.02246 -1.04102 -11.668 -1.04102 -16.9814c0 -9.68652 1.10352 -18.2695 3.04102 -26.0186c3 -14 12 -25 23 -31c7.05176 -3.84668 14.5146 -5.63867 22.3887 -5.63867c4.4082 0 8.94531 0.561523 13.6113 1.63867c25 5 52 22 79 42s53 45 72 69c2 2 4 6 4 9
c0 8 -7 14 -15 14c-4 0 -9 -2 -11 -5c-18 -22 -42 -46 -67 -65s-50 -32 -67 -36c-9 -2 -15 -1 -18 1s-7 4 -9 13c-0.920898 3.68262 -1.41797 8.42383 -1.41797 14.2129c0 19.3643 5.55957 50.4453 19.417 92.7881c1 2 1 4 2 6c0 1 1 2 1 3v1c0 1 1 2 1 3c0 8 -7 15 -15 15z
M54.6484 138.001c2 0 5 -1 7 -1c9 -2 15 -7 15 -7l1 -1c-9 -14 -21 -30 -33 -45c-13 -17 -28 -33 -40 -44c-6 -5 -11 -10 -15 -12c-1 -1 0 -1 -1 -1c0 4 0 12 2 21c6 20 19 47 36 70c12 16 21 20 28 20z" />
    <glyph glyph-name="ae" unicode="&#xe6;" horiz-adv-x="365" 
d="M109 174.015c-6 0 -11.002 -5 -13.002 -10v-2c0 -1 -2 -4 -5 -9c-5 4 -13 9 -25 11c-3.05957 0.679688 -6.32227 1.04199 -9.72754 1.04199c-16.6279 0 -36.6729 -8.63184 -53.2725 -31.042c-19 -26 -33 -54 -40 -79
c-2.16211 -8.64941 -3.80469 -16.7793 -3.80469 -24.7637c0 -3.09375 0.24707 -6.16504 0.805664 -9.23633c1 -5 3 -10 7 -15s11 -9 17 -9c9 -1 15 3 21 7s12 10 19 16c13 12 28 28 42 45c1 1 1 2 2 3c-3 -13 -6 -23 -7 -30c-1 -5 -2 -8 -1 -13c0 -2 0 -5 3 -9s12 -7 16 -6
c8 2 9 5 11 8s5 6 7 9c1 2 2 5 4 7c3 -7 8 -13 14 -18c15 -12 37 -17 68 -17c54 0 103 28 140 55s62 54 62 54c2 2 3 6 3 9c0 8 -6 15 -14 15c-4 0 -8 -2 -10 -5c0 0 -23 -25 -57 -50s-81 -50 -125 -50c-27 0 -42 5 -49 11s-9 12 -7 22c2 12 12 28 24 43
c20.417 -4.08301 37.0908 -6.125 50.8154 -6.125c9.80371 0 18.1025 1.04199 25.1855 3.125c9 3 17 7 22 14s6 16 4 23c-4 15 -17 24 -33 28c-4 1 -9 2 -13 2c-13 0 -27 -4 -41 -13c-12 -8 -23 -17 -33 -28c-3 -2 -6 -4 -8 -7c-6 -7 -12 -16 -18 -25l-2 -2c5 18 10 36 19 63
l1 2v3c0 8 -6 14 -14 14h-1zM204.998 138.015l7 -0.000976562c8 -2 11 -7 12 -8c-1 -1 -2 -2 -6 -3c-3.83984 -1.09668 -9.78613 -1.89258 -17.8398 -1.89258c-6.62695 0 -14.6807 0.539062 -24.1602 1.89355c2 1 3 3 5 4c9 6 17 7 24 7zM53.998 137.014h6c9 -2 16 -8 16 -8
l1 -1c-9 -14 -21 -30 -33 -45c-13 -16 -27 -32 -39 -43c-6 -5 -11 -10 -15 -12c-1 0 -1 -1 -2 -1c0 4 1 11 3 20c6 20 18 48 35 71c12 16 21 19 28 19zM68.998 37.0137c-1 -1 -1 -1 0 0z" />
    <glyph glyph-name="ccedilla" unicode="&#xe7;" horiz-adv-x="232" 
d="M80.4697 182h-3.99902c-13 -1 -27 -8 -42 -19c-31 -23 -60 -59 -68 -95c-0.970703 -4.36719 -1.4707 -8.79395 -1.4707 -13.1934c0 -13.7324 4.86719 -27.2031 15.4697 -37.8066c12.3447 -12.3447 31.6875 -18.4697 57.3428 -19.7451
c-10.9932 -26.1416 -34.3438 -29.2549 -34.3438 -29.2549c-7 -1 -12 -7 -12 -14c0 -8 7 -14 15 -14h3s45.1201 10.3398 58.8057 58.3604c44.5596 6.03125 86.0596 31.0957 119.195 54.6396c38 27 63 55 63 55c2 2 4 7 4 10c0 8 -6 14 -14 14c-3 0 -8 -1 -10 -4
c0 0 -25 -26 -60 -52s-81 -50 -122 -50c-27 0 -42 5 -48 11s-8 14 -6 26c5 24 31 58 57 77c13 9 22 13 27 13s8 -1 10 -3c5 -4 7 -13 7 -13c1 -6 8 -12 15 -12c8 0 14 6 14 14v3s-3 18 -18 30c-6 5 -15 10 -26 10z" />
    <glyph glyph-name="egrave" unicode="&#xe8;" horiz-adv-x="230" 
d="M27 279h-1c-8 0 -14 -6 -14 -14c0 -3 2 -8 4 -10l41 -44c2 -2 7 -4 10 -4c8 0 14 6 14 14c0 3 -1 8 -3 10l-41 43c-2 2 -7 5 -10 5zM66.9277 168c-13 0 -26.002 -4 -39.002 -13c-32 -21 -61 -55 -67 -90c-0.607422 -3.44336 -0.927734 -7.00977 -0.927734 -10.6084
c0 -14.166 4.9668 -28.8223 16.9287 -38.3916c15 -12 38 -18 69 -18c54 0 104 29 141 56s62 54 62 54c2 2 4 7 4 10c0 8 -6 14 -14 14c-4 0 -9 -1 -11 -4c0 0 -22 -26 -57 -51s-81 -50 -125 -50c-27 0 -43 5 -50 11s-9 12 -7 22c2 12 12 28 24 43
c20.417 -4.08301 37.0908 -6.125 50.8154 -6.125c9.80371 0 18.1025 1.04199 25.1855 3.125c9 3 17 7 22 14s7 16 5 24c-4 15 -18 24 -34 28c-4 1 -8 2 -12 2h-3zM68.9258 139c2 0 4 -1 6 -1c8 -2 12 -6 13 -7c-1 -1 -2 -2 -6 -3
c-4.42676 -1.26465 -12.0537 -2.5293 -22.375 -2.5293c-5.99805 0 -12.9062 0.426758 -20.625 1.5293c2 1 3 3 5 4c9 6 18 8 25 8z" />
    <glyph glyph-name="eacute" unicode="&#xe9;" horiz-adv-x="230" 
d="M124 285h-1c-4 0 -9 -3 -11 -6l-35 -44c-2 -2 -3 -6 -3 -9c0 -8 6 -14 14 -14c4 0 10 2 12 5l34 45c2 2 3 6 3 9c0 8 -5 14 -13 14zM66.9277 168c-13 0 -26.002 -4 -39.002 -13c-32 -21 -61 -55 -67 -90c-0.607422 -3.44336 -0.927734 -7.00977 -0.927734 -10.6084
c0 -14.166 4.9668 -28.8223 16.9287 -38.3916c15 -12 38 -18 69 -18c54 0 104 29 141 56s62 54 62 54c2 2 4 7 4 10c0 8 -6 14 -14 14c-4 0 -9 -1 -11 -4c0 0 -22 -26 -57 -51s-81 -50 -125 -50c-27 0 -43 5 -50 11s-9 12 -7 22c2 12 12 28 24 43
c20.417 -4.08301 37.0908 -6.125 50.8154 -6.125c9.80371 0 18.1025 1.04199 25.1855 3.125c9 3 17 7 22 14s7 16 5 24c-4 15 -18 24 -34 28c-4 1 -8 2 -12 2h-3zM68.9258 139c2 0 4 -1 6 -1c8 -2 12 -6 13 -7c-1 -1 -2 -2 -6 -3
c-4.42676 -1.26465 -12.0537 -2.5293 -22.375 -2.5293c-5.99805 0 -12.9062 0.426758 -20.625 1.5293c2 1 3 3 5 4c9 6 18 8 25 8z" />
    <glyph glyph-name="ecircumflex" unicode="&#xea;" horiz-adv-x="230" 
d="M78 295c-4 0 -9 -2 -11 -5c-18 -20 -42 -50 -42 -50c-2 -2 -3 -6 -3 -9c0 -8 6 -14 14 -14c4 0 9 2 11 5c0 0 17 19 30 35c14 -20 30 -39 30 -39c2 -3 7 -5 11 -5c8 0 14 6 14 14c0 3 -2 8 -4 10c0 0 -26 31 -38 51c-2 4 -8 7 -12 7zM66.9277 168
c-13 0 -26.002 -4 -39.002 -13c-32 -21 -61 -55 -67 -90c-0.607422 -3.44336 -0.927734 -7.00977 -0.927734 -10.6084c0 -14.166 4.9668 -28.8223 16.9287 -38.3916c15 -12 38 -18 69 -18c54 0 104 29 141 56s62 54 62 54c2 2 4 7 4 10c0 8 -6 14 -14 14c-4 0 -9 -1 -11 -4
c0 0 -22 -26 -57 -51s-81 -50 -125 -50c-27 0 -43 5 -50 11s-9 12 -7 22c2 12 12 28 24 43c20.417 -4.08301 37.0908 -6.125 50.8154 -6.125c9.80371 0 18.1025 1.04199 25.1855 3.125c9 3 17 7 22 14s7 16 5 24c-4 15 -18 24 -34 28c-4 1 -8 2 -12 2h-3zM68.9258 139
c2 0 4 -1 6 -1c8 -2 12 -6 13 -7c-1 -1 -2 -2 -6 -3c-4.42676 -1.26465 -12.0537 -2.5293 -22.375 -2.5293c-5.99805 0 -12.9062 0.426758 -20.625 1.5293c2 1 3 3 5 4c9 6 18 8 25 8z" />
    <glyph glyph-name="edieresis" unicode="&#xeb;" horiz-adv-x="230" 
d="M53.1592 240c-6 0 -12 -4 -14 -10l-8 -24c0 -1 -1 -4 -1 -5c0 -8 7 -14 15 -14c6 0 11 4 13 10l8 24c0 1 1 4 1 5c0 8 -6 14 -14 14zM102.159 240c-6 0 -12 -4 -14 -10l-8 -24c0 -1 -1 -4 -1 -5c0 -8 7 -14 15 -14c6 0 11 4 13 10l8 24c0 1 1 4 1 5c0 8 -6 14 -14 14z
M66.9277 168c-13 0 -26.002 -4 -39.002 -13c-32 -21 -61 -55 -67 -90c-0.607422 -3.44336 -0.927734 -7.00977 -0.927734 -10.6084c0 -14.166 4.9668 -28.8223 16.9287 -38.3916c15 -12 38 -18 69 -18c54 0 104 29 141 56s62 54 62 54c2 2 4 7 4 10c0 8 -6 14 -14 14
c-4 0 -9 -1 -11 -4c0 0 -22 -26 -57 -51s-81 -50 -125 -50c-27 0 -43 5 -50 11s-9 12 -7 22c2 12 12 28 24 43c20.417 -4.08301 37.0908 -6.125 50.8154 -6.125c9.80371 0 18.1025 1.04199 25.1855 3.125c9 3 17 7 22 14s7 16 5 24c-4 15 -18 24 -34 28c-4 1 -8 2 -12 2h-3z
M68.9258 139c2 0 4 -1 6 -1c8 -2 12 -6 13 -7c-1 -1 -2 -2 -6 -3c-4.42676 -1.26465 -12.0537 -2.5293 -22.375 -2.5293c-5.99805 0 -12.9062 0.426758 -20.625 1.5293c2 1 3 3 5 4c9 6 18 8 25 8z" />
    <glyph glyph-name="igrave" unicode="&#xec;" horiz-adv-x="239" 
d="M-24 244h-1c-8 0 -14 -6 -14 -14c0 -3 2 -8 4 -10l41 -44c2 -2 7 -4 10 -4c8 0 14 6 14 14c0 3 -1 8 -3 10l-41 43c-2 2 -7 5 -10 5zM11.1592 132c-8 0 -15 -5.00098 -15 -13.001c-0.890625 -13.3555 -4.15918 -30.6748 -4.15918 -49.1348
c0 -2.27246 0.0498047 -4.5625 0.15918 -6.86426c1 -21 8 -45 31 -58c10.7393 -6.34668 22.6709 -8.87988 34.9795 -8.87988c12.9053 0 26.2246 2.78516 39.0205 6.87988c25 8 50 23 74 38c47 31 86 66 86 66c3 2 4 7 4 11c0 8 -6 14 -14 14c-3 0 -8 -2 -10 -4
c0 0 -36 -34 -81 -63c-22 -15 -47 -28 -68 -35c-10.0977 -3.36621 -19.502 -4.88281 -27.7676 -4.88281c-8.92383 0 -16.5215 1.76758 -22.2324 4.88281c-13 7 -16 18 -17 34c-0.109375 1.75391 -0.15918 3.54395 -0.15918 5.36426
c0 14.7891 3.26855 31.6084 4.15918 47.6357v1c0 8 -6 14 -14 14z" />
    <glyph glyph-name="iacute" unicode="&#xed;" horiz-adv-x="239" 
d="M50 251h-1c-4 0 -9 -3 -11 -6l-35 -44c-2 -2 -3 -6 -3 -9c0 -8 6 -14 14 -14c4 0 10 2 12 5l34 45c2 2 3 6 3 9c0 8 -5 14 -13 14zM11.1592 132c-8 0 -15 -5.00098 -15 -13.001c-0.890625 -13.3555 -4.15918 -30.6748 -4.15918 -49.1348
c0 -2.27246 0.0498047 -4.5625 0.15918 -6.86426c1 -21 8 -45 31 -58c10.7393 -6.34668 22.6709 -8.87988 34.9795 -8.87988c12.9053 0 26.2246 2.78516 39.0205 6.87988c25 8 50 23 74 38c47 31 86 66 86 66c3 2 4 7 4 11c0 8 -6 14 -14 14c-3 0 -8 -2 -10 -4
c0 0 -36 -34 -81 -63c-22 -15 -47 -28 -68 -35c-10.0977 -3.36621 -19.502 -4.88281 -27.7676 -4.88281c-8.92383 0 -16.5215 1.76758 -22.2324 4.88281c-13 7 -16 18 -17 34c-0.109375 1.75391 -0.15918 3.54395 -0.15918 5.36426
c0 14.7891 3.26855 31.6084 4.15918 47.6357v1c0 8 -6 14 -14 14z" />
    <glyph glyph-name="icircumflex" unicode="&#xee;" horiz-adv-x="239" 
d="M21 251c-4 0 -9 -2 -11 -5c-18 -20 -42 -50 -42 -50c-2 -2 -3 -6 -3 -9c0 -8 6 -14 14 -14c4 0 9 2 11 5c0 0 17 19 30 35c14 -20 30 -39 30 -39c2 -3 7 -5 11 -5c8 0 14 6 14 14c0 3 -2 8 -4 10c0 0 -26 31 -38 51c-2 4 -8 7 -12 7zM11.1592 132
c-8 0 -15 -5.00098 -15 -13.001c-0.890625 -13.3555 -4.15918 -30.6748 -4.15918 -49.1348c0 -2.27246 0.0498047 -4.5625 0.15918 -6.86426c1 -21 8 -45 31 -58c10.7393 -6.34668 22.6709 -8.87988 34.9795 -8.87988c12.9053 0 26.2246 2.78516 39.0205 6.87988
c25 8 50 23 74 38c47 31 86 66 86 66c3 2 4 7 4 11c0 8 -6 14 -14 14c-3 0 -8 -2 -10 -4c0 0 -36 -34 -81 -63c-22 -15 -47 -28 -68 -35c-10.0977 -3.36621 -19.502 -4.88281 -27.7676 -4.88281c-8.92383 0 -16.5215 1.76758 -22.2324 4.88281c-13 7 -16 18 -17 34
c-0.109375 1.75391 -0.15918 3.54395 -0.15918 5.36426c0 14.7891 3.26855 31.6084 4.15918 47.6357v1c0 8 -6 14 -14 14z" />
    <glyph glyph-name="idieresis" unicode="&#xef;" horiz-adv-x="239" 
d="M4.15918 225c-6 0 -12 -4 -14 -10l-8 -24c0 -1 -1 -4 -1 -5c0 -8 7 -14 15 -14c6 0 11 4 13 10l8 24c0 1 1 4 1 5c0 8 -6 14 -14 14zM53.1592 225c-6 0 -12 -4 -14 -10l-8 -24c0 -1 -1 -4 -1 -5c0 -8 7 -14 15 -14c6 0 11 4 13 10l8 24c0 1 1 4 1 5c0 8 -6 14 -14 14z
M11.1592 132c-8 0 -15 -5.00098 -15 -13.001c-0.890625 -13.3555 -4.15918 -30.6748 -4.15918 -49.1348c0 -2.27246 0.0498047 -4.5625 0.15918 -6.86426c1 -21 8 -45 31 -58c10.7393 -6.34668 22.6709 -8.87988 34.9795 -8.87988
c12.9053 0 26.2246 2.78516 39.0205 6.87988c25 8 50 23 74 38c47 31 86 66 86 66c3 2 4 7 4 11c0 8 -6 14 -14 14c-3 0 -8 -2 -10 -4c0 0 -36 -34 -81 -63c-22 -15 -47 -28 -68 -35c-10.0977 -3.36621 -19.502 -4.88281 -27.7676 -4.88281
c-8.92383 0 -16.5215 1.76758 -22.2324 4.88281c-13 7 -16 18 -17 34c-0.109375 1.75391 -0.15918 3.54395 -0.15918 5.36426c0 14.7891 3.26855 31.6084 4.15918 47.6357v1c0 8 -6 14 -14 14z" />
    <glyph glyph-name="ntilde" unicode="&#xf1;" horiz-adv-x="273" 
d="M95 264c-3 0 -5.99902 0 -8.99902 -1c-15 -4 -24 -14 -31 -22s-13 -12 -16 -12s-8 0 -22 15c-2 3 -7 5 -11 5c-8 0 -14 -6 -14 -14c0 -3 2 -8 4 -10c15.2998 -16.2002 28.9795 -24.2998 42.4971 -24.2998c1.50195 0 3.00195 0.0996094 4.50195 0.299805c15 2 25 12 32 20
s14 13 18 14s10 1 24 -11c2 -2 7 -4 10 -4c8 0 14 6 14 14c0 4 -2 9 -5 11c-13 12 -26 18 -38 19h-3zM111.001 160c-2 0 -3 -1 -5 -1c-4 -1 -8 -3 -11 -5c-6 -4 -11 -10 -17 -17c-11 -14 -23 -33 -34 -51s-23 -37 -32 -49c-1 -2 -3 -3 -4 -5v1c0 9 2 22 4 34
c5 24 11 47 11 47c0 1 1 3 1 4c0 8 -6 14 -14 14c-6 0 -12 -4 -14 -10c0 0 -7 -24 -12 -50c-2 -13 -5 -27 -5 -39c0 -6 1 -12 3 -18s4 -12 11 -16c5 -3 12 -3 16 -2s7 4 10 6c6 5 11 10 16 17c10 14 22 33 33 51s23 36 32 48c3 4 6 7 8 9c1 -3 2 -7 2 -11c1 -12 0 -28 1 -44
s2 -33 7 -47c3 -7 6 -15 12 -20s15 -9 24 -9c37 0 70 30 96 58s43 55 43 55c1 2 3 6 3 8c0 8 -7 14 -15 14c-4 0 -10 -2 -12 -6c0 0 -16 -26 -40 -52s-55 -48 -75 -48c-3 0 -4 0 -5 1s-2 4 -4 8c-3 9 -4 24 -5 39s-1 32 -2 46c-1 7 -2 14 -4 20s-5 13 -13 17c-2 1 -5 3 -8 3
h-2z" />
    <glyph glyph-name="ograve" unicode="&#xf2;" horiz-adv-x="251" 
d="M27 279h-1c-8 0 -14 -6 -14 -14c0 -3 2 -8 4 -10l41 -44c2 -2 7 -4 10 -4c8 0 14 6 14 14c0 3 -1 8 -3 10l-41 43c-2 2 -7 5 -10 5zM71.2344 182c-6 0 -12 -1.99902 -18 -3.99902c-11 -5 -21 -14 -26 -25c-2.08301 -4.58301 -3.125 -9.6875 -3.125 -15.0234
c0 -7.46973 2.04199 -15.3936 6.125 -22.9766c13 -25 31 -41 51 -51c-13 -19 -31 -35 -46 -39c-7 -2 -11 -2 -13 -1s-4 2 -5 4c-3 4 -5 16 -4 29c1 26 10 57 10 57c0 1 1 3 1 4c0 8 -6 14 -14 14c-6 0 -12 -4 -14 -10c0 0 -11 -32 -12 -64
c-0.151367 -2.42188 -0.234375 -4.84375 -0.234375 -7.25879c0 -13.5391 2.59668 -26.8604 10.2344 -38.7412c4 -7 11 -12 20 -15s19 -2 29 1c28 8 50 31 66 57c7.33789 -1.22266 14.6758 -1.79102 21.9561 -1.79102c16.5322 0 32.7695 2.93164 48.043 7.79102
c49 15 89 46 89 46c3 2 6 7 6 11c0 8 -6 14 -14 14c-3 0 -7 -1 -9 -3c0 0 -37 -27 -80 -40c-13.9336 -4.35449 -28.625 -7.19238 -42.7539 -7.19238c-2.0957 0 -4.17871 0.0625 -6.24512 0.191406c4.94141 12.6279 8.07422 25.2559 8.07422 37.3877
c0 9.96387 -2.11328 19.5928 -7.07422 28.6123c-13 23 -33 34 -52 34zM73.2344 154.001c8 0 17 -5 25 -20c1.54102 -2.69629 2.33984 -7.17285 2.33984 -12.7441c0 -8.89258 -2.03613 -20.5742 -6.33984 -32.2559c-15 7 -28 18 -39 39c-3 6 -3 10 -1 14s5 8 10 10
c2 1 5 2 8 2h1z" />
    <glyph glyph-name="oacute" unicode="&#xf3;" horiz-adv-x="251" 
d="M124 285h-1c-4 0 -9 -3 -11 -6l-35 -44c-2 -2 -3 -6 -3 -9c0 -8 6 -14 14 -14c4 0 10 2 12 5l34 45c2 2 3 6 3 9c0 8 -5 14 -13 14zM71.2344 182c-6 0 -12 -1.99902 -18 -3.99902c-11 -5 -21 -14 -26 -25c-2.08301 -4.58301 -3.125 -9.6875 -3.125 -15.0234
c0 -7.46973 2.04199 -15.3936 6.125 -22.9766c13 -25 31 -41 51 -51c-13 -19 -31 -35 -46 -39c-7 -2 -11 -2 -13 -1s-4 2 -5 4c-3 4 -5 16 -4 29c1 26 10 57 10 57c0 1 1 3 1 4c0 8 -6 14 -14 14c-6 0 -12 -4 -14 -10c0 0 -11 -32 -12 -64
c-0.151367 -2.42188 -0.234375 -4.84375 -0.234375 -7.25879c0 -13.5391 2.59668 -26.8604 10.2344 -38.7412c4 -7 11 -12 20 -15s19 -2 29 1c28 8 50 31 66 57c7.33789 -1.22266 14.6758 -1.79102 21.9561 -1.79102c16.5322 0 32.7695 2.93164 48.043 7.79102
c49 15 89 46 89 46c3 2 6 7 6 11c0 8 -6 14 -14 14c-3 0 -7 -1 -9 -3c0 0 -37 -27 -80 -40c-13.9336 -4.35449 -28.625 -7.19238 -42.7539 -7.19238c-2.0957 0 -4.17871 0.0625 -6.24512 0.191406c4.94141 12.6279 8.07422 25.2559 8.07422 37.3877
c0 9.96387 -2.11328 19.5928 -7.07422 28.6123c-13 23 -33 34 -52 34zM73.2344 154.001c8 0 17 -5 25 -20c1.54102 -2.69629 2.33984 -7.17285 2.33984 -12.7441c0 -8.89258 -2.03613 -20.5742 -6.33984 -32.2559c-15 7 -28 18 -39 39c-3 6 -3 10 -1 14s5 8 10 10
c2 1 5 2 8 2h1z" />
    <glyph glyph-name="ocircumflex" unicode="&#xf4;" horiz-adv-x="251" 
d="M78 295c-4 0 -9 -2 -11 -5c-18 -20 -42 -50 -42 -50c-2 -2 -3 -6 -3 -9c0 -8 6 -14 14 -14c4 0 9 2 11 5c0 0 17 19 30 35c14 -20 30 -39 30 -39c2 -3 7 -5 11 -5c8 0 14 6 14 14c0 3 -2 8 -4 10c0 0 -26 31 -38 51c-2 4 -8 7 -12 7zM71.2344 182
c-6 0 -12 -1.99902 -18 -3.99902c-11 -5 -21 -14 -26 -25c-2.08301 -4.58301 -3.125 -9.6875 -3.125 -15.0234c0 -7.46973 2.04199 -15.3936 6.125 -22.9766c13 -25 31 -41 51 -51c-13 -19 -31 -35 -46 -39c-7 -2 -11 -2 -13 -1s-4 2 -5 4c-3 4 -5 16 -4 29
c1 26 10 57 10 57c0 1 1 3 1 4c0 8 -6 14 -14 14c-6 0 -12 -4 -14 -10c0 0 -11 -32 -12 -64c-0.151367 -2.42188 -0.234375 -4.84375 -0.234375 -7.25879c0 -13.5391 2.59668 -26.8604 10.2344 -38.7412c4 -7 11 -12 20 -15s19 -2 29 1c28 8 50 31 66 57
c7.33789 -1.22266 14.6758 -1.79102 21.9561 -1.79102c16.5322 0 32.7695 2.93164 48.043 7.79102c49 15 89 46 89 46c3 2 6 7 6 11c0 8 -6 14 -14 14c-3 0 -7 -1 -9 -3c0 0 -37 -27 -80 -40c-13.9336 -4.35449 -28.625 -7.19238 -42.7539 -7.19238
c-2.0957 0 -4.17871 0.0625 -6.24512 0.191406c4.94141 12.6279 8.07422 25.2559 8.07422 37.3877c0 9.96387 -2.11328 19.5928 -7.07422 28.6123c-13 23 -33 34 -52 34zM73.2344 154.001c8 0 17 -5 25 -20c1.54102 -2.69629 2.33984 -7.17285 2.33984 -12.7441
c0 -8.89258 -2.03613 -20.5742 -6.33984 -32.2559c-15 7 -28 18 -39 39c-3 6 -3 10 -1 14s5 8 10 10c2 1 5 2 8 2h1z" />
    <glyph glyph-name="otilde" unicode="&#xf5;" horiz-adv-x="251" 
d="M95 264c-3 0 -5.99902 0 -8.99902 -1c-15 -4 -24 -14 -31 -22s-13 -12 -16 -12s-8 0 -22 15c-2 3 -7 5 -11 5c-8 0 -14 -6 -14 -14c0 -3 2 -8 4 -10c15.2998 -16.2002 28.9795 -24.2998 42.4971 -24.2998c1.50195 0 3.00195 0.0996094 4.50195 0.299805c15 2 25 12 32 20
s14 13 18 14s10 1 24 -11c2 -2 7 -4 10 -4c8 0 14 6 14 14c0 4 -2 9 -5 11c-13 12 -26 18 -38 19h-3zM71.2354 182c-6 0 -12 -1.99902 -18 -3.99902c-11 -5 -21 -14 -26 -25c-2.08301 -4.58301 -3.125 -9.6875 -3.125 -15.0234c0 -7.46973 2.04199 -15.3936 6.125 -22.9766
c13 -25 31 -41 51 -51c-13 -19 -31 -35 -46 -39c-7 -2 -11 -2 -13 -1s-4 2 -5 4c-3 4 -5 16 -4 29c1 26 10 57 10 57c0 1 1 3 1 4c0 8 -6 14 -14 14c-6 0 -12 -4 -14 -10c0 0 -11 -32 -12 -64c-0.151367 -2.42188 -0.234375 -4.84375 -0.234375 -7.25879
c0 -13.5391 2.59668 -26.8604 10.2344 -38.7412c4 -7 11 -12 20 -15s19 -2 29 1c28 8 50 31 66 57c7.33789 -1.22266 14.6758 -1.79102 21.9561 -1.79102c16.5322 0 32.7695 2.93164 48.043 7.79102c49 15 89 46 89 46c3 2 6 7 6 11c0 8 -6 14 -14 14c-3 0 -7 -1 -9 -3
c0 0 -37 -27 -80 -40c-13.9336 -4.35449 -28.625 -7.19238 -42.7539 -7.19238c-2.0957 0 -4.17871 0.0625 -6.24512 0.191406c4.94141 12.6279 8.07422 25.2559 8.07422 37.3877c0 9.96387 -2.11328 19.5928 -7.07422 28.6123c-13 23 -33 34 -52 34zM73.2354 154.001
c8 0 17 -5 25 -20c1.54102 -2.69629 2.33984 -7.17285 2.33984 -12.7441c0 -8.89258 -2.03613 -20.5742 -6.33984 -32.2559c-15 7 -28 18 -39 39c-3 6 -3 10 -1 14s5 8 10 10c2 1 5 2 8 2h1z" />
    <glyph glyph-name="odieresis" unicode="&#xf6;" horiz-adv-x="251" 
d="M53.1592 247c-6 0 -12 -4 -14 -10l-8 -24c0 -1 -1 -4 -1 -5c0 -8 7 -14 15 -14c6 0 11 4 13 10l8 24c0 1 1 4 1 5c0 8 -6 14 -14 14zM102.159 247c-6 0 -12 -4 -14 -10l-8 -24c0 -1 -1 -4 -1 -5c0 -8 7 -14 15 -14c6 0 11 4 13 10l8 24c0 1 1 4 1 5c0 8 -6 14 -14 14z
M71.2344 182c-6 0 -12 -1.99902 -18 -3.99902c-11 -5 -21 -14 -26 -25c-2.08301 -4.58301 -3.125 -9.6875 -3.125 -15.0234c0 -7.46973 2.04199 -15.3936 6.125 -22.9766c13 -25 31 -41 51 -51c-13 -19 -31 -35 -46 -39c-7 -2 -11 -2 -13 -1s-4 2 -5 4c-3 4 -5 16 -4 29
c1 26 10 57 10 57c0 1 1 3 1 4c0 8 -6 14 -14 14c-6 0 -12 -4 -14 -10c0 0 -11 -32 -12 -64c-0.151367 -2.42188 -0.234375 -4.84375 -0.234375 -7.25879c0 -13.5391 2.59668 -26.8604 10.2344 -38.7412c4 -7 11 -12 20 -15s19 -2 29 1c28 8 50 31 66 57
c7.33789 -1.22266 14.6758 -1.79102 21.9561 -1.79102c16.5322 0 32.7695 2.93164 48.043 7.79102c49 15 89 46 89 46c3 2 6 7 6 11c0 8 -6 14 -14 14c-3 0 -7 -1 -9 -3c0 0 -37 -27 -80 -40c-13.9336 -4.35449 -28.625 -7.19238 -42.7539 -7.19238
c-2.0957 0 -4.17871 0.0625 -6.24512 0.191406c4.94141 12.6279 8.07422 25.2559 8.07422 37.3877c0 9.96387 -2.11328 19.5928 -7.07422 28.6123c-13 23 -33 34 -52 34zM73.2344 154.001c8 0 17 -5 25 -20c1.54102 -2.69629 2.33984 -7.17285 2.33984 -12.7441
c0 -8.89258 -2.03613 -20.5742 -6.33984 -32.2559c-15 7 -28 18 -39 39c-3 6 -3 10 -1 14s5 8 10 10c2 1 5 2 8 2h1z" />
    <glyph glyph-name="divide" unicode="&#xf7;" horiz-adv-x="401" 
d="M193 253c-6 0 -11 -4 -13 -10l-6 -21c0 -1 -1 -4 -1 -5c0 -8 6 -14 14 -14c6 0 12 4 14 10l6 22c0 1 1 3 1 4c0 8 -6 14 -14 14h-1zM65 183c-8 0 -15 -7 -15 -15s7 -14 15 -14l272 -1c8 0 14 7 14 15s-6 14 -14 14zM179 136c-6 0 -12 -4 -14 -10l-6 -22c0 -1 -1 -3 -1 -4
c0 -8 7 -14 15 -14c6 0 11 4 13 10l7 21v5c0 8 -6 14 -14 14z" />
    <glyph glyph-name="oslash" unicode="&#xf8;" horiz-adv-x="251" 
d="M71.2344 182c-6 0 -12.002 -1.99902 -18.002 -3.99902c-11 -5 -21 -14 -26 -25c-2.08301 -4.58301 -3.125 -9.6875 -3.125 -15.0234c0 -7.46973 2.04199 -15.3936 6.125 -22.9766c5.33398 -10.2578 11.5098 -19 18.3193 -26.4346l-35.5352 -35.5352
c0.0419922 1.30762 0.113281 2.63281 0.21582 3.96875c1 26 10 57 10 57c0 1 1 3 1 4c0 8 -6 14 -14 14c-6 0 -12 -4 -14 -10c0 0 -11 -32 -12 -64c-0.652344 -10.4414 -0.0273438 -20.8828 2.98633 -30.7676l-46.7266 -46.7266
c-5.65723 -5.65625 -6.36426 -14.8486 -0.707031 -20.5059c5.65723 -5.65625 15.5566 -5.65625 21.2129 0l42.3164 42.3164c3.16602 -2.18359 6.83691 -3.95605 10.9189 -5.31641c9 -3 19 -2 29 1c28 8 50 31 66 57c7.33789 -1.22266 14.6758 -1.79102 21.9561 -1.79102
c16.5322 0 32.7695 2.93164 48.043 7.79102c49 15 89 46 89 46c3 2 6 7 6 11c0 8 -6 14 -14 14c-3 0 -7 -1 -9 -3c0 0 -37 -27 -80 -40c-13.9336 -4.35449 -28.625 -7.19238 -42.7539 -7.19238c-2.0957 0 -4.17871 0.0625 -6.24512 0.191406
c4.94141 12.6279 8.07422 25.2559 8.07422 37.3877c0 3.12695 -0.208008 6.2207 -0.647461 9.27344l54.0781 54.0781c5.65625 5.65625 5.65625 15.5557 0 21.2129c-5.65723 5.65625 -14.8496 4.94922 -20.5068 -0.707031l-46.0371 -46.0371
c-12.71 16.7373 -29.7012 24.793 -45.96 24.793zM96.707 136.722l-28.3428 -28.3447c-4.65527 5.35938 -9.03223 11.7969 -13.1318 19.623c-3 6 -3 10 -1 14s5 8 10 10c2 1 5 2 8 2h1c7.49512 0 15.8682 -4.38867 23.4746 -17.2783zM70.8613 69.8613
c3.38379 -2.15137 6.84766 -4.09863 10.3721 -5.86133c-13 -19 -31 -35 -46 -39c-5.0332 -1.43848 -8.51562 -1.84277 -10.8184 -1.58496zM96.3594 95.3604c-0.634766 -2.1084 -1.34277 -4.23438 -2.12598 -6.36035c-0.956055 0.446289 -1.9043 0.90918 -2.84473 1.38965z
" />
    <glyph glyph-name="ugrave" unicode="&#xf9;" horiz-adv-x="328" 
d="M27 279h-1c-8 0 -14 -6 -14 -14c0 -3 2 -8 4 -10l41 -44c2 -2 7 -4 10 -4c8 0 14 6 14 14c0 3 -1 8 -3 10l-41 43c-2 2 -7 5 -10 5zM149.076 147c-4 0 -10 -2.00098 -12 -6.00098c0 0 -51 -77 -112 -111c-7 -4 -11 -5 -12 -5c-1 2 -3 13 -2 27c3 27 13 62 13 62
c0 1 1 3 1 4c0 8 -7 14 -15 14c-6 0 -11 -4 -13 -10c0 0 -12 -35 -15 -67c-0.640625 -5.12598 -1.07617 -10.1494 -1.07617 -15.0703c0 -10.4385 1.95996 -20.415 8.07617 -29.9297c5 -7 13 -13 22 -13s18 3 28 8c34 19 63 47 85 72
c-0.516602 -5.16699 -0.766602 -10.1338 -0.766602 -14.8828c0 -13.6338 2.05859 -25.4756 5.7666 -35.1172c5 -12 14 -21 25 -26c6.73828 -3.0625 14.2275 -4.24902 21.7773 -4.24902c4.77441 0 9.57324 0.474609 14.2227 1.24902c49 10 108 57 156 110c2 2 4 7 4 10
c0 8 -7 14 -15 14c-4 0 -8 -1 -10 -4c-46 -50 -107 -95 -141 -102c-9 -2 -15 -1 -19 1s-6 4 -9 11c-2.06152 5.36133 -3.44336 13.6143 -3.44336 24.8281c0 15.9775 2.80469 37.9678 10.4434 66.1729v4c0 8 -6 14 -14 14z" />
    <glyph glyph-name="uacute" unicode="&#xfa;" horiz-adv-x="328" 
d="M124 285h-1c-4 0 -9 -3 -11 -6l-35 -44c-2 -2 -3 -6 -3 -9c0 -8 6 -14 14 -14c4 0 10 2 12 5l34 45c2 2 3 6 3 9c0 8 -5 14 -13 14zM149.076 147c-4 0 -10 -2.00098 -12 -6.00098c0 0 -51 -77 -112 -111c-7 -4 -11 -5 -12 -5c-1 2 -3 13 -2 27c3 27 13 62 13 62
c0 1 1 3 1 4c0 8 -7 14 -15 14c-6 0 -11 -4 -13 -10c0 0 -12 -35 -15 -67c-0.640625 -5.12598 -1.07617 -10.1494 -1.07617 -15.0703c0 -10.4385 1.95996 -20.415 8.07617 -29.9297c5 -7 13 -13 22 -13s18 3 28 8c34 19 63 47 85 72
c-0.516602 -5.16699 -0.766602 -10.1338 -0.766602 -14.8828c0 -13.6338 2.05859 -25.4756 5.7666 -35.1172c5 -12 14 -21 25 -26c6.73828 -3.0625 14.2275 -4.24902 21.7773 -4.24902c4.77441 0 9.57324 0.474609 14.2227 1.24902c49 10 108 57 156 110c2 2 4 7 4 10
c0 8 -7 14 -15 14c-4 0 -8 -1 -10 -4c-46 -50 -107 -95 -141 -102c-9 -2 -15 -1 -19 1s-6 4 -9 11c-2.06152 5.36133 -3.44336 13.6143 -3.44336 24.8281c0 15.9775 2.80469 37.9678 10.4434 66.1729v4c0 8 -6 14 -14 14z" />
    <glyph glyph-name="ucircumflex" unicode="&#xfb;" horiz-adv-x="328" 
d="M78 295c-4 0 -9 -2 -11 -5c-18 -20 -42 -50 -42 -50c-2 -2 -3 -6 -3 -9c0 -8 6 -14 14 -14c4 0 9 2 11 5c0 0 17 19 30 35c14 -20 30 -39 30 -39c2 -3 7 -5 11 -5c8 0 14 6 14 14c0 3 -2 8 -4 10c0 0 -26 31 -38 51c-2 4 -8 7 -12 7zM149.076 147
c-4 0 -10 -2.00098 -12 -6.00098c0 0 -51 -77 -112 -111c-7 -4 -11 -5 -12 -5c-1 2 -3 13 -2 27c3 27 13 62 13 62c0 1 1 3 1 4c0 8 -7 14 -15 14c-6 0 -11 -4 -13 -10c0 0 -12 -35 -15 -67c-0.640625 -5.12598 -1.07617 -10.1494 -1.07617 -15.0703
c0 -10.4385 1.95996 -20.415 8.07617 -29.9297c5 -7 13 -13 22 -13s18 3 28 8c34 19 63 47 85 72c-0.516602 -5.16699 -0.766602 -10.1338 -0.766602 -14.8828c0 -13.6338 2.05859 -25.4756 5.7666 -35.1172c5 -12 14 -21 25 -26
c6.73828 -3.0625 14.2275 -4.24902 21.7773 -4.24902c4.77441 0 9.57324 0.474609 14.2227 1.24902c49 10 108 57 156 110c2 2 4 7 4 10c0 8 -7 14 -15 14c-4 0 -8 -1 -10 -4c-46 -50 -107 -95 -141 -102c-9 -2 -15 -1 -19 1s-6 4 -9 11
c-2.06152 5.36133 -3.44336 13.6143 -3.44336 24.8281c0 15.9775 2.80469 37.9678 10.4434 66.1729v4c0 8 -6 14 -14 14z" />
    <glyph glyph-name="udieresis" unicode="&#xfc;" horiz-adv-x="328" 
d="M53.1592 247c-6 0 -12 -4 -14 -10l-8 -24c0 -1 -1 -4 -1 -5c0 -8 7 -14 15 -14c6 0 11 4 13 10l8 24c0 1 1 4 1 5c0 8 -6 14 -14 14zM102.159 247c-6 0 -12 -4 -14 -10l-8 -24c0 -1 -1 -4 -1 -5c0 -8 7 -14 15 -14c6 0 11 4 13 10l8 24c0 1 1 4 1 5c0 8 -6 14 -14 14z
M149.076 147c-4 0 -10 -2.00098 -12 -6.00098c0 0 -51 -77 -112 -111c-7 -4 -11 -5 -12 -5c-1 2 -3 13 -2 27c3 27 13 62 13 62c0 1 1 3 1 4c0 8 -7 14 -15 14c-6 0 -11 -4 -13 -10c0 0 -12 -35 -15 -67c-0.640625 -5.12598 -1.07617 -10.1494 -1.07617 -15.0703
c0 -10.4385 1.95996 -20.415 8.07617 -29.9297c5 -7 13 -13 22 -13s18 3 28 8c34 19 63 47 85 72c-0.516602 -5.16699 -0.766602 -10.1338 -0.766602 -14.8828c0 -13.6338 2.05859 -25.4756 5.7666 -35.1172c5 -12 14 -21 25 -26
c6.73828 -3.0625 14.2275 -4.24902 21.7773 -4.24902c4.77441 0 9.57324 0.474609 14.2227 1.24902c49 10 108 57 156 110c2 2 4 7 4 10c0 8 -7 14 -15 14c-4 0 -8 -1 -10 -4c-46 -50 -107 -95 -141 -102c-9 -2 -15 -1 -19 1s-6 4 -9 11
c-2.06152 5.36133 -3.44336 13.6143 -3.44336 24.8281c0 15.9775 2.80469 37.9678 10.4434 66.1729v4c0 8 -6 14 -14 14z" />
    <glyph glyph-name="yacute" unicode="&#xfd;" horiz-adv-x="323" 
d="M124 285h-1c-4 0 -9 -3 -11 -6l-35 -44c-2 -2 -3 -6 -3 -9c0 -8 6 -14 14 -14c4 0 10 2 12 5l34 45c2 2 3 6 3 9c0 8 -5 14 -13 14zM145.872 179c-6 0 -13 -5 -14 -11c-1 -4 -6 -18 -14 -34s-18 -34 -29 -52s-24 -35 -36 -46s-21 -16 -26 -16c-9 1 -12 3 -14 7
s-4 12 -4 22c0 20 8 46 14 65c0 1 1 3 1 4c0 8 -6 14 -14 14c-6 0 -12 -4 -14 -10c-6 -19 -15 -47 -16 -73c0 -13 2 -26 9 -37s20 -19 36 -20c0.876953 -0.0458984 1.74512 -0.0683594 2.60449 -0.0683594c17.7773 0 32.041 9.71484 45.3955 23.0693c14 14 28 32 40 51
c5 7 9 15 13 22c-2 -19 -5 -41 -8 -64c-26 -20 -50 -42 -73 -64c-43 -42 -78 -83 -96 -119c-7.22461 -14.4502 -11.8721 -27.6113 -11.8721 -40.5186c0 -3.1709 0.280273 -6.32617 0.87207 -9.48145c3 -16 18 -29 36 -33
c7.33398 -1.59473 14.4639 -2.37598 21.3584 -2.37598c14.7285 0 28.3809 3.56348 40.6416 10.375c18 10 33 26 46 45c25 38 42 89 53 141c4 19 7 38 10 56c20 15 40 30 60 43c48 30 94 51 126 53c7 0 14 7 14 14c0 8 -6 14 -14 14h-2c-41 -3 -89 -25 -139 -57
c-13 -8 -26 -17 -39 -26c8 65 9 116 9 116c0 8 -6 14 -14 14zM110.872 -19c-1 -8 -1.99902 -14 -3.99902 -22c-11 -50 -27 -100 -49 -133c-11 -16 -22 -28 -35 -35c-9.02539 -4.85938 -18.0508 -7.79102 -28.415 -7.79102c-4.56445 0 -9.38867 0.568359 -14.5859 1.79102
c-11.5928 2.10742 -14.1875 5.38086 -14.1875 13.4824c0 6.33008 3.0625 16.3926 9.1875 29.5176c15 30 48 72 90 112c14 14 30 27 46 41z" />
    <glyph glyph-name="ydieresis" unicode="&#xff;" horiz-adv-x="323" 
d="M53.1592 240c-6 0 -12 -4 -14 -10l-8 -24c0 -1 -1 -4 -1 -5c0 -8 7 -14 15 -14c6 0 11 4 13 10l8 24c0 1 1 4 1 5c0 8 -6 14 -14 14zM102.159 240c-6 0 -12 -4 -14 -10l-8 -24c0 -1 -1 -4 -1 -5c0 -8 7 -14 15 -14c6 0 11 4 13 10l8 24c0 1 1 4 1 5c0 8 -6 14 -14 14z
M145.872 179c-6 0 -13 -5 -14 -11c-1 -4 -6 -18 -14 -34s-18 -34 -29 -52s-24 -35 -36 -46s-21 -16 -26 -16c-9 1 -12 3 -14 7s-4 12 -4 22c0 20 8 46 14 65c0 1 1 3 1 4c0 8 -6 14 -14 14c-6 0 -12 -4 -14 -10c-6 -19 -15 -47 -16 -73c0 -13 2 -26 9 -37s20 -19 36 -20
c0.876953 -0.0458984 1.74512 -0.0683594 2.60449 -0.0683594c17.7773 0 32.041 9.71484 45.3955 23.0693c14 14 28 32 40 51c5 7 9 15 13 22c-2 -19 -5 -41 -8 -64c-26 -20 -50 -42 -73 -64c-43 -42 -78 -83 -96 -119
c-7.22461 -14.4502 -11.8721 -27.6113 -11.8721 -40.5186c0 -3.1709 0.280273 -6.32617 0.87207 -9.48145c3 -16 18 -29 36 -33c7.33398 -1.59473 14.4639 -2.37598 21.3584 -2.37598c14.7285 0 28.3809 3.56348 40.6416 10.375c18 10 33 26 46 45c25 38 42 89 53 141
c4 19 7 38 10 56c20 15 40 30 60 43c48 30 94 51 126 53c7 0 14 7 14 14c0 8 -6 14 -14 14h-2c-41 -3 -89 -25 -139 -57c-13 -8 -26 -17 -39 -26c8 65 9 116 9 116c0 8 -6 14 -14 14zM110.872 -19c-1 -8 -1.99902 -14 -3.99902 -22c-11 -50 -27 -100 -49 -133
c-11 -16 -22 -28 -35 -35c-9.02539 -4.85938 -18.0508 -7.79102 -28.415 -7.79102c-4.56445 0 -9.38867 0.568359 -14.5859 1.79102c-11.5928 2.10742 -14.1875 5.38086 -14.1875 13.4824c0 6.33008 3.0625 16.3926 9.1875 29.5176c15 30 48 72 90 112c14 14 30 27 46 41z
" />
    </font>
</defs>
</svg>
